Торрент файл
скачать торрент магнет ссылка Добавлен: 20 май 2016, 10:53
Размер: 4.24 ГБ
Сидеров: 13
Личеров: 2
Автор

СообщениеДобавлено: 20 май 2016, 10:53 

Не в сети
Супермодератор
Аватара пользователя
Дата регистрации:
15 фев 2012, 16:44
Возраст: 28
Спасибо: 6642 / 2146
Сообщения: 45738
Год выхода: 2016
Жанр: боевик, драма, вестерн
Режиссер: Гэвин О’Коннор

В ролях: Натали Портман, Джоэл Эдгертон, Юэн МакГрегор, Ноа Эммерик, Бойд Холбрук, Родриго Санторо, Джеймс Барнетт, Сэм Куинн, Мэйси МакМастер, Дженни Гэбриэлль


О фильме:
Головорезы МакКэна преследуют попытавшегося отбиться от банды Хэма. Изрешеченный пулями, он укрывается на ранчо своей красавицы-жены Джейн. Ей приходится обратиться за защитой к тому, кого она хотела бы видеть меньше всего, — к своему бывшему любовнику. Джейн нужно забыть прошлое, совладать с чувствами и стать сильной и бескомпромиссной, чтобы спасти семью от расправы банды наемников.





Страна: США
Студия: 1821 Pictures, Scott Pictures
Продолжительность: 94 мин. / 01:34
Перевод: полное дублирование

Файл
Кодек: MPEG2
Качество: DVD5 (сжатый)
Видео: PAL 16:9 (720x576@1024x576) VBR 6069 Kbps, 25.000 fps
Аудио: Dolby AC3, 6 ch, 48.0 KHz, 448 Kbps
Субтитры: украинские

Исходник: Джейн берет ружье / Jane Got a Gun (2016) DVD9 от New-Team | Лицензия
Удалены: бонусы, предупреждающие надписи (в меню кнопки затерты). Команды диска переписаны заново, оставлены два VTS.
Видео сжато на 4%
Меню: статичное, недействующие кнопки затерты и закрыты.
Обработка и сжатие: DVD ReMake Pro + DVD Rebuilder + CCE SP2 [7 проходов] + Работа с меню (Adobe PhotoShop и MuxMan).
Автор релиза: J9-1000
Общее
Полное имя : D:Jane Got a Gun (2016) DVD5VIDEO_TSVTS_02_1.VOB
Формат : MPEG-PS
Размер файла : 1024 Мбайт
Продолжительность : 21 м.
Режим общего битрейта : Переменный
Общий поток : 6649 Кбит/сек
Видео
Идентификатор : 224 (0xE0)
Формат : MPEG Video
Версия формата : Version 2
Профиль формата : Main@Main
Параметр BVOP формата : Да
Параметр матрицы формата : Выборочная
Параметр GOP формата : Variable
Продолжительность : 21 м.
Вид битрейта : Переменный
Битрейт : 6069 Кбит/сек
Максимальный битрейт : 9000 Кбит/сек
Ширина : 720 пикселей
Высота : 576 пикселей
Соотношение сторон : 16:9
Частота кадров : 25,000 кадров/сек
Стандарт вещания : PAL
Цветовое пространство : YUV
Субдискретизация насыщенности : 4:2:0
Битовая глубина : 8 бит
Тип развёртки : Прогрессивная
Порядок развёртки : Нижнее поле первое
Метод сжатия : С потерями
Бит/(Пиксели*Кадры) : 0.585
Временной код первого кадра : 00:00:00:00
Оригинал временного кода : Group of pictures header
GOP, открыто/закрыто : Открыто
GOP, открыто/закрыто на первом кадре : Закрыто
Размер потока : 935 Мбайт (91%)
Аудио
Идентификатор : 189 (0xBD)-128 (0x80)
Формат : AC-3
Формат/Информация : Audio Coding 3
Расширение режима : CM (complete main)
Параметр Endianness формата : Big
Режим смешивания : DVD-Video
Продолжительность : 21 м.
Вид битрейта : Постоянный
Битрейт : 448 Кбит/сек
Каналы : 6 каналов
Расположение каналов : Front: L C R, Side: L R, LFE
Частота : 48,0 КГц
Частота кадров : 31,250 кадров/сек (1536 spf)
Метод сжатия : С потерями
Размер потока : 69,0 Мбайт (7%)
Текст #1
Идентификатор : 189 (0xBD)-33 (0x21)
Формат : RLE
Формат/Информация : Run-length encoding
Режим смешивания : DVD-Video
Текст #2
Идентификатор : 189 (0xBD)-34 (0x22)
Формат : RLE
Формат/Информация : Run-length encoding
Режим смешивания : DVD-Video
Меню



_________________
Проголосуй за трекер Открытый торрент трекер - RUS-MEDIA.ORG

Проголосуй Открытый торрент трекер - RUS-MEDIA.ORG



реклама партнёра


Вернуться к началу
 Профиль Отправить личное сообщение  
 
   Похожие торренты   Автор   Торрент   Размер 
В этой теме нет новых непрочитанных сообщений. Джейн берет ружье / Jane Got a Gun [боевик, драма, вестерн, 2015] WEBRip-AVC, Dvo

salma3

159 | 5

2.84 ГБ

В этой теме нет новых непрочитанных сообщений. Джейн берет ружье / Jane Got a Gun [боевик, драма, вестерн, 2015] WEBRip, Dvo

salma3

466 | 11

1.37 ГБ

В этой теме нет новых непрочитанных сообщений. Джейн берёт ружье / Jane Got a Gun [боевик, драма, вестерн, 2015] BDRip 1080p, Dub [Line]

salma3

625 | 214

7.79 ГБ

В этой теме нет новых непрочитанных сообщений. Месть Бедовой Джейн / Calamity Jane's Revenge [вестерн, 2015] DVDRip, Mvo

salma3

49 | 8

1.37 ГБ

В этой теме нет новых непрочитанных сообщений. Солдат Джейн / G.I. Jane [Драма, боевик, военный, 1997] BDRemux 1080p, Dub

salma3

7 | 14

21.14 ГБ

В этой теме нет новых непрочитанных сообщений. Солдат Джейн / G.I. Jane [боевик, драма, военный, 1997] BDRip 720p, Mvo+Avo+Sub

salma3

52 | 12

5.75 ГБ

В этой теме нет новых непрочитанных сообщений. Джейн Остин / Becoming Jane [драма, мелодрама, биография, 2007] BDRip-AVC, Dub

salma3

26 | 17

1.45 ГБ


Начать новую тему Ответить на тему  [ 1 сообщение ] 




Для Мосгорсуда, Роскомнадзора и рекламодателей:: mosgorsud-torrent[собачка]yandex.ru