Торрент файл
скачать торрент магнет ссылка Добавлен: 18 мар 2016, 12:20
Размер: 4.18 ГБ
Сидеров: 1
Личеров: 3
Автор

СообщениеДобавлено: 18 мар 2016, 12:20 

Не в сети
Супермодератор
Аватара пользователя
Дата регистрации:
15 фев 2012, 16:44
Возраст: 27
Спасибо: 5535 / 2105
Сообщения: 21184
Перевод: Авторский (одноголосый)
Cубтитры: отсутствуют
Формат: DVD5, DVD Video, MPEG2, AC3
Страна: США
Режиссер: Рассел Малкэй, Эллиот Силверштейн, Роберт Земекис, ...
Жанр: ужасы, фэнтези, триллер, комедия, криминал, детектив
Продолжительность: 01:20:00 + 01:20:54 + 01:22:01
Год выпуска: 1989

В ролях: Джон Кассир, Рой Броксмит, Мигель Феррер, Кэм Кларк, Ларри Дрэйк, Боб Голдтуэйт, Лэнс Хенриксен, Шерри Роуз, Уильям Сэдлер, Маршалл Белл

Описание: «Байки из склепа» — телесериал, созданный по мотивам комиксов Уильяма М. Гейнса, составленный из более чем полусотни сюжетов, представляющих собой короткие страшно юморные истории, рассказанные от лица симпатичного обитателя склепа, сопровождаемые его едкими, зловонными комментариями. Помните — смех продлевает жизнь, а постоянный смех сделает вас бессмертным.

Рейтинг на КиноПоиск.RU:7.670
Рейтинг на IMDB:8.0/10

Видео: 720x576i (PAL 4:3), MPEG2 Video, 25 fps, ~ 8 000 kbps, 0.772 bits/(pixel*frame)
Аудио: Русский:48.0 KHz, (AC-3), 2 ch, ~ 192 kbps [Авторский (одноголосый)]


Общее
Полное имя : F:\Tales_From_The_Crypt\vol_1\VIDEO_TS\VIDEO_TS.BUP
Формат : DVD Video
Профиль формата : Menu
Размер файла : 14,0 Кбайт
Режим общего битрейта : Переменный

Видео
Идентификатор : 224 (0xE0)
Формат : MPEG Video
Версия формата : Version 2
Вид битрейта : Переменный
Ширина : 720 пикселей
Высота : 576 пикселей
Соотношение сторон : 4:3
Частота кадров : 25,000 кадров/сек
Стандарт вещания : PAL
Метод сжатия : С потерями

Аудио
Формат : AC-3
Формат/Информация : Audio Coding 3
Каналы : 2 канала
Частота : 48,0 КГц
Метод сжатия : С потерями

Текст
Формат : RLE
Формат/Информация : Run-length encoding
Битовая глубина : 2 бит

Общее
Полное имя : F:\Tales_From_The_Crypt\vol_1\VIDEO_TS\VIDEO_TS.IFO
Формат : DVD Video
Профиль формата : Menu
Размер файла : 14,0 Кбайт
Режим общего битрейта : Переменный

Видео
Идентификатор : 224 (0xE0)
Формат : MPEG Video
Версия формата : Version 2
Вид битрейта : Переменный
Ширина : 720 пикселей
Высота : 576 пикселей
Соотношение сторон : 4:3
Частота кадров : 25,000 кадров/сек
Стандарт вещания : PAL
Метод сжатия : С потерями

Аудио
Формат : AC-3
Формат/Информация : Audio Coding 3
Каналы : 2 канала
Частота : 48,0 КГц
Метод сжатия : С потерями

Текст
Формат : RLE
Формат/Информация : Run-length encoding
Битовая глубина : 2 бит

Общее
Полное имя : F:\Tales_From_The_Crypt\vol_1\VIDEO_TS\VIDEO_TS.VOB
Формат : MPEG-PS
Размер файла : 29,9 Мбайт
Продолжительность : 30 с.
Режим общего битрейта : Переменный
Общий поток : 8357 Кбит/сек

Видео
Идентификатор : 224 (0xE0)
Формат : MPEG Video
Версия формата : Version 2
Профиль формата : Main@Main
Параметр BVOP формата : Да
Параметр матрицы формата : По умолчанию
Параметр GOP формата : M=3, N=12
Продолжительность : 30 с.
Вид битрейта : Переменный
Битрейт : 8000 Кбит/сек
Ширина : 720 пикселей
Высота : 576 пикселей
Соотношение сторон : 4:3
Частота кадров : 25,000 кадров/сек
Стандарт вещания : PAL
Цветовое пространство : YUV
Субдискретизация насыщенности : 4:2:0
Битовая глубина : 8 бит
Тип развёртки : Прогрессивная
Метод сжатия : С потерями
Бит/(Пиксели*Кадры) : 0.772
Временной код первого кадра : 00:00:00:00
Оригинал временного кода : Group of pictures header
GOP, открыто/закрыто : Открыто
GOP, открыто/закрыто на первом кадре : Закрыто
Размер потока : 28,6 Мбайт (96%)
Основные цвета : BT.601 PAL
Характеристики трансфера : BT.470 System B, BT.470 System G
Коэффициенты матрицы : BT.601

Аудио
Идентификатор : 189 (0xBD)-128 (0x80)
Формат : AC-3
Формат/Информация : Audio Coding 3
Расширение режима : CM (complete main)
Параметр Endianness формата : Big
Режим смешивания : DVD-Video
Продолжительность : 29 с.
Вид битрейта : Постоянный
Битрейт : 192 Кбит/сек
Каналы : 2 канала
Расположение каналов : Front: L R
Частота : 48,0 КГц
Частота кадров : 31,250 кадров/сек (1536 spf)
Метод сжатия : С потерями
Размер потока : 701 Кбайт (2%)

Текст
Идентификатор : 189 (0xBD)-32 (0x20)
Формат : RLE
Формат/Информация : Run-length encoding
Режим смешивания : DVD-Video

Меню

Общее
Полное имя : F:\Tales_From_The_Crypt\vol_1\VIDEO_TS\VTS_01_0.BUP
Формат : DVD Video
Профиль формата : Program
Размер файла : 52,0 Кбайт
Продолжительность : 1 ч. 20 м.
Режим общего битрейта : Переменный
Общий поток : 89 бит/сек

Видео
Идентификатор : 224 (0xE0)
Формат : MPEG Video
Версия формата : Version 2
Продолжительность : 1 ч. 20 м.
Вид битрейта : Переменный
Ширина : 720 пикселей
Высота : 576 пикселей
Соотношение сторон : 4:3
Частота кадров : 25,000 кадров/сек
Стандарт вещания : PAL
Метод сжатия : С потерями

Аудио
Идентификатор : 128 (0x80)
Формат : AC-3
Формат/Информация : Audio Coding 3
Продолжительность : 1 ч. 20 м.
Каналы : 2 канала
Частота : 48,0 КГц
Метод сжатия : С потерями
Язык : Russian

Меню
Продолжительность : 1 ч. 20 м.
00:00:00.000 : Chapter 1
00:02:30.560 : Chapter 2
00:07:08.880 : Chapter 3
00:10:12.200 : Chapter 4
00:13:52.080 : Chapter 5
00:18:14.360 : Chapter 6
00:22:23.760 : Chapter 7
00:27:24.680 : Chapter 8
00:31:44.680 : Chapter 9
00:34:59.840 : Chapter 10
00:38:42.080 : Chapter 11
00:42:41.640 : Chapter 12
00:46:48.400 : Chapter 13
00:51:48.360 : Chapter 14
00:56:00.680 : Chapter 15
01:00:39.080 : Chapter 16
01:06:41.480 : Chapter 17
01:11:14.640 : Chapter 18
01:16:13.440 : Chapter 19
List (Audio) : 0

Общее
Полное имя : F:\Tales_From_The_Crypt\vol_1\VIDEO_TS\VTS_01_0.IFO
Формат : DVD Video
Профиль формата : Program
Размер файла : 52,0 Кбайт
Продолжительность : 1 ч. 20 м.
Режим общего битрейта : Переменный
Общий поток : 89 бит/сек

Видео
Идентификатор : 224 (0xE0)
Формат : MPEG Video
Версия формата : Version 2
Продолжительность : 1 ч. 20 м.
Вид битрейта : Переменный
Ширина : 720 пикселей
Высота : 576 пикселей
Соотношение сторон : 4:3
Частота кадров : 25,000 кадров/сек
Стандарт вещания : PAL
Метод сжатия : С потерями

Аудио
Идентификатор : 128 (0x80)
Формат : AC-3
Формат/Информация : Audio Coding 3
Продолжительность : 1 ч. 20 м.
Каналы : 2 канала
Частота : 48,0 КГц
Метод сжатия : С потерями
Язык : Russian

Меню
Продолжительность : 1 ч. 20 м.
00:00:00.000 : Chapter 1
00:02:30.560 : Chapter 2
00:07:08.880 : Chapter 3
00:10:12.200 : Chapter 4
00:13:52.080 : Chapter 5
00:18:14.360 : Chapter 6
00:22:23.760 : Chapter 7
00:27:24.680 : Chapter 8
00:31:44.680 : Chapter 9
00:34:59.840 : Chapter 10
00:38:42.080 : Chapter 11
00:42:41.640 : Chapter 12
00:46:48.400 : Chapter 13
00:51:48.360 : Chapter 14
00:56:00.680 : Chapter 15
01:00:39.080 : Chapter 16
01:06:41.480 : Chapter 17
01:11:14.640 : Chapter 18
01:16:13.440 : Chapter 19
List (Audio) : 0

Общее
Полное имя : F:\Tales_From_The_Crypt\vol_1\VIDEO_TS\VTS_01_0.VOB
Формат : MPEG-PS
Размер файла : 29,9 Мбайт
Продолжительность : 30 с.
Режим общего битрейта : Переменный
Общий поток : 8358 Кбит/сек

Видео
Идентификатор : 224 (0xE0)
Формат : MPEG Video
Версия формата : Version 2
Профиль формата : Main@Main
Параметр BVOP формата : Да
Параметр матрицы формата : По умолчанию
Параметр GOP формата : M=3, N=12
Продолжительность : 30 с.
Вид битрейта : Переменный
Битрейт : 8000 Кбит/сек
Ширина : 720 пикселей
Высота : 576 пикселей
Соотношение сторон : 4:3
Частота кадров : 25,000 кадров/сек
Стандарт вещания : PAL
Цветовое пространство : YUV
Субдискретизация насыщенности : 4:2:0
Битовая глубина : 8 бит
Тип развёртки : Прогрессивная
Метод сжатия : С потерями
Бит/(Пиксели*Кадры) : 0.772
Временной код первого кадра : 00:00:00:00
Оригинал временного кода : Group of pictures header
GOP, открыто/закрыто : Открыто
GOP, открыто/закрыто на первом кадре : Закрыто
Размер потока : 28,6 Мбайт (96%)
Основные цвета : BT.601 PAL
Характеристики трансфера : BT.470 System B, BT.470 System G
Коэффициенты матрицы : BT.601

Аудио
Идентификатор : 189 (0xBD)-128 (0x80)
Формат : AC-3
Формат/Информация : Audio Coding 3
Расширение режима : CM (complete main)
Параметр Endianness формата : Big
Режим смешивания : DVD-Video
Продолжительность : 29 с.
Вид битрейта : Постоянный
Битрейт : 192 Кбит/сек
Каналы : 2 канала
Расположение каналов : Front: L R
Частота : 48,0 КГц
Частота кадров : 31,250 кадров/сек (1536 spf)
Метод сжатия : С потерями
Размер потока : 701 Кбайт (2%)

Текст
Идентификатор : 189 (0xBD)-32 (0x20)
Формат : RLE
Формат/Информация : Run-length encoding
Режим смешивания : DVD-Video

Меню

Общее
Полное имя : F:\Tales_From_The_Crypt\vol_1\VIDEO_TS\VTS_01_1.VOB
Формат : MPEG-PS
Размер файла : 954 Мбайт
Продолжительность : 48 м.
Режим общего битрейта : Переменный
Общий поток : 2777 Кбит/сек

Видео
Идентификатор : 224 (0xE0)
Формат : MPEG Video
Версия формата : Version 2
Профиль формата : Main@Main
Параметр BVOP формата : Да
Параметр матрицы формата : Выборочная
Параметр GOP формата : Variable
Структура изображения : Frame
Продолжительность : 48 м.
Вид битрейта : Переменный
Битрейт : 2530 Кбит/сек
Максимальный битрейт : 8000 Кбит/сек
Ширина : 720 пикселей
Высота : 576 пикселей
Соотношение сторон : 4:3
Частота кадров : 25,000 кадров/сек
Стандарт вещания : PAL
Цветовое пространство : YUV
Субдискретизация насыщенности : 4:2:0
Битовая глубина : 8 бит
Тип развёртки : Чересстрочная
Порядок развёртки : Нижнее поле первое
Метод сжатия : С потерями
Бит/(Пиксели*Кадры) : 0.244
Временной код первого кадра : 00:00:00:00
Оригинал временного кода : Group of pictures header
GOP, открыто/закрыто : Открыто
GOP, открыто/закрыто на первом кадре : Закрыто
Размер потока : 869 Мбайт (91%)

Аудио
Идентификатор : 189 (0xBD)-128 (0x80)
Формат : AC-3
Формат/Информация : Audio Coding 3
Расширение режима : CM (complete main)
Параметр Endianness формата : Big
Режим смешивания : DVD-Video
Продолжительность : 48 м.
Вид битрейта : Постоянный
Битрейт : 192 Кбит/сек
Каналы : 2 канала
Расположение каналов : Front: L R
Частота : 48,0 КГц
Частота кадров : 31,250 кадров/сек (1536 spf)
Метод сжатия : С потерями
Размер потока : 66,0 Мбайт (7%)

Меню

Общее
Полное имя : F:\Tales_From_The_Crypt\vol_1\VIDEO_TS\VTS_01_2.VOB
Формат : MPEG-PS
Размер файла : 455 Мбайт
Продолжительность : 31 м.
Режим общего битрейта : Переменный
Общий поток : 1987 Кбит/сек

Видео
Идентификатор : 224 (0xE0)
Формат : MPEG Video
Версия формата : Version 2
Профиль формата : Main@Main
Параметр BVOP формата : Да
Параметр матрицы формата : Выборочная
Параметр GOP формата : M=3, N=15
Структура изображения : Frame
Продолжительность : 31 м.
Вид битрейта : Переменный
Битрейт : 1756 Кбит/сек
Максимальный битрейт : 8000 Кбит/сек
Ширина : 720 пикселей
Высота : 576 пикселей
Соотношение сторон : 4:3
Частота кадров : 25,000 кадров/сек
Стандарт вещания : PAL
Цветовое пространство : YUV
Субдискретизация насыщенности : 4:2:0
Битовая глубина : 8 бит
Тип развёртки : Чересстрочная
Порядок развёртки : Нижнее поле первое
Метод сжатия : С потерями
Бит/(Пиксели*Кадры) : 0.169
Временной код первого кадра : 00:48:01:15
Оригинал временного кода : Group of pictures header
GOP, открыто/закрыто : Открыто
Размер потока : 402 Мбайт (88%)

Аудио
Идентификатор : 189 (0xBD)-128 (0x80)
Формат : AC-3
Формат/Информация : Audio Coding 3
Расширение режима : CM (complete main)
Параметр Endianness формата : Big
Режим смешивания : DVD-Video
Продолжительность : 31 м.
Вид битрейта : Постоянный
Битрейт : 192 Кбит/сек
Каналы : 2 канала
Расположение каналов : Front: L R
Частота : 48,0 КГц
Частота кадров : 31,250 кадров/сек (1536 spf)
Метод сжатия : С потерями
Задержка видео : -208 мс.
Размер потока : 43,9 Мбайт (10%)

Меню

Общее
Полное имя : F:\Tales_From_The_Crypt\vol_1\VIDEO_TS\VTS_02_0.BUP
Формат : DVD Video
Профиль формата : Program
Размер файла : 52,0 Кбайт
Продолжительность : 1 ч. 20 м.
Режим общего битрейта : Переменный
Общий поток : 88 бит/сек

Видео
Идентификатор : 224 (0xE0)
Формат : MPEG Video
Версия формата : Version 2
Продолжительность : 1 ч. 20 м.
Вид битрейта : Переменный
Ширина : 720 пикселей
Высота : 576 пикселей
Соотношение сторон : 4:3
Частота кадров : 25,000 кадров/сек
Стандарт вещания : PAL
Метод сжатия : С потерями

Аудио
Идентификатор : 128 (0x80)
Формат : AC-3
Формат/Информация : Audio Coding 3
Продолжительность : 1 ч. 20 м.
Каналы : 2 канала
Частота : 48,0 КГц
Метод сжатия : С потерями
Язык : Russian

Меню
Продолжительность : 1 ч. 20 м.
00:00:00.000 : Chapter 1
00:02:15.560 : Chapter 2
00:06:40.120 : Chapter 3
00:12:30.520 : Chapter 4
00:18:04.320 : Chapter 5
00:23:03.240 : Chapter 6
00:27:57.760 : Chapter 7
00:32:46.960 : Chapter 8
00:37:43.640 : Chapter 9
00:41:23.040 : Chapter 10
00:47:15.840 : Chapter 11
00:53:02.920 : Chapter 12
00:56:40.720 : Chapter 13
01:00:46.720 : Chapter 14
01:06:18.720 : Chapter 15
01:12:28.480 : Chapter 16
01:16:26.360 : Chapter 17
List (Audio) : 0

Общее
Полное имя : F:\Tales_From_The_Crypt\vol_1\VIDEO_TS\VTS_02_0.IFO
Формат : DVD Video
Профиль формата : Program
Размер файла : 52,0 Кбайт
Продолжительность : 1 ч. 20 м.
Режим общего битрейта : Переменный
Общий поток : 88 бит/сек

Видео
Идентификатор : 224 (0xE0)
Формат : MPEG Video
Версия формата : Version 2
Продолжительность : 1 ч. 20 м.
Вид битрейта : Переменный
Ширина : 720 пикселей
Высота : 576 пикселей
Соотношение сторон : 4:3
Частота кадров : 25,000 кадров/сек
Стандарт вещания : PAL
Метод сжатия : С потерями

Аудио
Идентификатор : 128 (0x80)
Формат : AC-3
Формат/Информация : Audio Coding 3
Продолжительность : 1 ч. 20 м.
Каналы : 2 канала
Частота : 48,0 КГц
Метод сжатия : С потерями
Язык : Russian

Меню
Продолжительность : 1 ч. 20 м.
00:00:00.000 : Chapter 1
00:02:15.560 : Chapter 2
00:06:40.120 : Chapter 3
00:12:30.520 : Chapter 4
00:18:04.320 : Chapter 5
00:23:03.240 : Chapter 6
00:27:57.760 : Chapter 7
00:32:46.960 : Chapter 8
00:37:43.640 : Chapter 9
00:41:23.040 : Chapter 10
00:47:15.840 : Chapter 11
00:53:02.920 : Chapter 12
00:56:40.720 : Chapter 13
01:00:46.720 : Chapter 14
01:06:18.720 : Chapter 15
01:12:28.480 : Chapter 16
01:16:26.360 : Chapter 17
List (Audio) : 0

Общее
Полное имя : F:\Tales_From_The_Crypt\vol_1\VIDEO_TS\VTS_02_0.VOB
Формат : MPEG-PS
Размер файла : 29,9 Мбайт
Продолжительность : 30 с.
Режим общего битрейта : Переменный
Общий поток : 8358 Кбит/сек

Видео
Идентификатор : 224 (0xE0)
Формат : MPEG Video
Версия формата : Version 2
Профиль формата : Main@Main
Параметр BVOP формата : Да
Параметр матрицы формата : По умолчанию
Параметр GOP формата : M=3, N=12
Продолжительность : 30 с.
Вид битрейта : Переменный
Битрейт : 8000 Кбит/сек
Ширина : 720 пикселей
Высота : 576 пикселей
Соотношение сторон : 4:3
Частота кадров : 25,000 кадров/сек
Стандарт вещания : PAL
Цветовое пространство : YUV
Субдискретизация насыщенности : 4:2:0
Битовая глубина : 8 бит
Тип развёртки : Прогрессивная
Метод сжатия : С потерями
Бит/(Пиксели*Кадры) : 0.772
Временной код первого кадра : 00:00:00:00
Оригинал временного кода : Group of pictures header
GOP, открыто/закрыто : Открыто
GOP, открыто/закрыто на первом кадре : Закрыто
Размер потока : 28,6 Мбайт (96%)
Основные цвета : BT.601 PAL
Характеристики трансфера : BT.470 System B, BT.470 System G
Коэффициенты матрицы : BT.601

Аудио
Идентификатор : 189 (0xBD)-128 (0x80)
Формат : AC-3
Формат/Информация : Audio Coding 3
Расширение режима : CM (complete main)
Параметр Endianness формата : Big
Режим смешивания : DVD-Video
Продолжительность : 29 с.
Вид битрейта : Постоянный
Битрейт : 192 Кбит/сек
Каналы : 2 канала
Расположение каналов : Front: L R
Частота : 48,0 КГц
Частота кадров : 31,250 кадров/сек (1536 spf)
Метод сжатия : С потерями
Размер потока : 701 Кбайт (2%)

Текст
Идентификатор : 189 (0xBD)-32 (0x20)
Формат : RLE
Формат/Информация : Run-length encoding
Режим смешивания : DVD-Video

Меню

Общее
Полное имя : F:\Tales_From_The_Crypt\vol_1\VIDEO_TS\VTS_02_1.VOB
Формат : MPEG-PS
Размер файла : 954 Мбайт
Продолжительность : 55 м.
Режим общего битрейта : Переменный
Общий поток : 2412 Кбит/сек

Видео
Идентификатор : 224 (0xE0)
Формат : MPEG Video
Версия формата : Version 2
Профиль формата : Main@Main
Параметр BVOP формата : Да
Параметр матрицы формата : Выборочная
Параметр GOP формата : Variable
Структура изображения : Frame
Продолжительность : 55 м.
Вид битрейта : Переменный
Битрейт : 2172 Кбит/сек
Максимальный битрейт : 8000 Кбит/сек
Ширина : 720 пикселей
Высота : 576 пикселей
Соотношение сторон : 4:3
Частота кадров : 25,000 кадров/сек
Стандарт вещания : PAL
Цветовое пространство : YUV
Субдискретизация насыщенности : 4:2:0
Битовая глубина : 8 бит
Тип развёртки : Чересстрочная
Порядок развёртки : Нижнее поле первое
Метод сжатия : С потерями
Бит/(Пиксели*Кадры) : 0.210
Временной код первого кадра : 00:00:00:00
Оригинал временного кода : Group of pictures header
GOP, открыто/закрыто : Открыто
GOP, открыто/закрыто на первом кадре : Закрыто
Размер потока : 859 Мбайт (90%)

Аудио
Идентификатор : 189 (0xBD)-128 (0x80)
Формат : AC-3
Формат/Информация : Audio Coding 3
Расширение режима : CM (complete main)
Параметр Endianness формата : Big
Режим смешивания : DVD-Video
Продолжительность : 55 м.
Вид битрейта : Постоянный
Битрейт : 192 Кбит/сек
Каналы : 2 канала
Расположение каналов : Front: L R
Частота : 48,0 КГц
Частота кадров : 31,250 кадров/сек (1536 spf)
Метод сжатия : С потерями
Размер потока : 75,9 Мбайт (8%)

Меню

Общее
Полное имя : F:\Tales_From_The_Crypt\vol_1\VIDEO_TS\VTS_02_2.VOB
Формат : MPEG-PS
Размер файла : 412 Мбайт
Продолжительность : 25 м.
Режим общего битрейта : Переменный
Общий поток : 2247 Кбит/сек

Видео
Идентификатор : 224 (0xE0)
Формат : MPEG Video
Версия формата : Version 2
Профиль формата : Main@Main
Параметр BVOP формата : Да
Параметр матрицы формата : Выборочная
Параметр GOP формата : M=3, N=15
Структура изображения : Frame
Продолжительность : 25 м.
Вид битрейта : Переменный
Битрейт : 2011 Кбит/сек
Максимальный битрейт : 8000 Кбит/сек
Ширина : 720 пикселей
Высота : 576 пикселей
Соотношение сторон : 4:3
Частота кадров : 25,000 кадров/сек
Стандарт вещания : PAL
Цветовое пространство : YUV
Субдискретизация насыщенности : 4:2:0
Битовая глубина : 8 бит
Тип развёртки : Чересстрочная
Порядок развёртки : Нижнее поле первое
Метод сжатия : С потерями
Бит/(Пиксели*Кадры) : 0.194
Временной код первого кадра : 00:55:16:18
Оригинал временного кода : Group of pictures header
GOP, открыто/закрыто : Открыто
Размер потока : 369 Мбайт (89%)

Аудио
Идентификатор : 189 (0xBD)-128 (0x80)
Формат : AC-3
Формат/Информация : Audio Coding 3
Расширение режима : CM (complete main)
Параметр Endianness формата : Big
Режим смешивания : DVD-Video
Продолжительность : 25 м.
Вид битрейта : Постоянный
Битрейт : 192 Кбит/сек
Каналы : 2 канала
Расположение каналов : Front: L R
Частота : 48,0 КГц
Частота кадров : 31,250 кадров/сек (1536 spf)
Метод сжатия : С потерями
Задержка видео : -224 мс.
Размер потока : 35,2 Мбайт (9%)

Меню

Общее
Полное имя : F:\Tales_From_The_Crypt\vol_1\VIDEO_TS\VTS_03_0.BUP
Формат : DVD Video
Профиль формата : Program
Размер файла : 54,0 Кбайт
Продолжительность : 1 ч. 22 м.
Режим общего битрейта : Переменный
Общий поток : 90 бит/сек

Видео
Идентификатор : 224 (0xE0)
Формат : MPEG Video
Версия формата : Version 2
Продолжительность : 1 ч. 22 м.
Вид битрейта : Переменный
Ширина : 720 пикселей
Высота : 576 пикселей
Соотношение сторон : 4:3
Частота кадров : 25,000 кадров/сек
Стандарт вещания : PAL
Метод сжатия : С потерями

Аудио
Идентификатор : 128 (0x80)
Формат : AC-3
Формат/Информация : Audio Coding 3
Продолжительность : 1 ч. 22 м.
Каналы : 2 канала
Частота : 48,0 КГц
Метод сжатия : С потерями
Язык : Russian

Меню
Продолжительность : 1 ч. 22 м.
00:00:00.000 : Chapter 1
00:02:06.920 : Chapter 2
00:06:36.040 : Chapter 3
00:10:12.160 : Chapter 4
00:15:45.680 : Chapter 5
00:22:04.320 : Chapter 6
00:29:34.200 : Chapter 7
00:33:01.880 : Chapter 8
00:37:07.440 : Chapter 9
00:40:21.520 : Chapter 10
00:43:42.640 : Chapter 11
00:47:15.360 : Chapter 12
00:50:38.480 : Chapter 13
00:53:45.320 : Chapter 14
00:59:07.960 : Chapter 15
01:04:21.760 : Chapter 16
01:11:29.160 : Chapter 17
01:17:50.680 : Chapter 18
List (Audio) : 0

Общее
Полное имя : F:\Tales_From_The_Crypt\vol_1\VIDEO_TS\VTS_03_0.IFO
Формат : DVD Video
Профиль формата : Program
Размер файла : 54,0 Кбайт
Продолжительность : 1 ч. 22 м.
Режим общего битрейта : Переменный
Общий поток : 90 бит/сек

Видео
Идентификатор : 224 (0xE0)
Формат : MPEG Video
Версия формата : Version 2
Продолжительность : 1 ч. 22 м.
Вид битрейта : Переменный
Ширина : 720 пикселей
Высота : 576 пикселей
Соотношение сторон : 4:3
Частота кадров : 25,000 кадров/сек
Стандарт вещания : PAL
Метод сжатия : С потерями

Аудио
Идентификатор : 128 (0x80)
Формат : AC-3
Формат/Информация : Audio Coding 3
Продолжительность : 1 ч. 22 м.
Каналы : 2 канала
Частота : 48,0 КГц
Метод сжатия : С потерями
Язык : Russian

Меню
Продолжительность : 1 ч. 22 м.
00:00:00.000 : Chapter 1
00:02:06.920 : Chapter 2
00:06:36.040 : Chapter 3
00:10:12.160 : Chapter 4
00:15:45.680 : Chapter 5
00:22:04.320 : Chapter 6
00:29:34.200 : Chapter 7
00:33:01.880 : Chapter 8
00:37:07.440 : Chapter 9
00:40:21.520 : Chapter 10
00:43:42.640 : Chapter 11
00:47:15.360 : Chapter 12
00:50:38.480 : Chapter 13
00:53:45.320 : Chapter 14
00:59:07.960 : Chapter 15
01:04:21.760 : Chapter 16
01:11:29.160 : Chapter 17
01:17:50.680 : Chapter 18
List (Audio) : 0

Общее
Полное имя : F:\Tales_From_The_Crypt\vol_1\VIDEO_TS\VTS_03_0.VOB
Формат : MPEG-PS
Размер файла : 29,9 Мбайт
Продолжительность : 30 с.
Режим общего битрейта : Переменный
Общий поток : 8357 Кбит/сек

Видео
Идентификатор : 224 (0xE0)
Формат : MPEG Video
Версия формата : Version 2
Профиль формата : Main@Main
Параметр BVOP формата : Да
Параметр матрицы формата : По умолчанию
Параметр GOP формата : M=3, N=12
Продолжительность : 30 с.
Вид битрейта : Переменный
Битрейт : 8000 Кбит/сек
Ширина : 720 пикселей
Высота : 576 пикселей
Соотношение сторон : 4:3
Частота кадров : 25,000 кадров/сек
Стандарт вещания : PAL
Цветовое пространство : YUV
Субдискретизация насыщенности : 4:2:0
Битовая глубина : 8 бит
Тип развёртки : Прогрессивная
Метод сжатия : С потерями
Бит/(Пиксели*Кадры) : 0.772
Временной код первого кадра : 00:00:00:00
Оригинал временного кода : Group of pictures header
GOP, открыто/закрыто : Открыто
GOP, открыто/закрыто на первом кадре : Закрыто
Размер потока : 28,6 Мбайт (96%)
Основные цвета : BT.601 PAL
Характеристики трансфера : BT.470 System B, BT.470 System G
Коэффициенты матрицы : BT.601

Аудио
Идентификатор : 189 (0xBD)-128 (0x80)
Формат : AC-3
Формат/Информация : Audio Coding 3
Расширение режима : CM (complete main)
Параметр Endianness формата : Big
Режим смешивания : DVD-Video
Продолжительность : 29 с.
Вид битрейта : Постоянный
Битрейт : 192 Кбит/сек
Каналы : 2 канала
Расположение каналов : Front: L R
Частота : 48,0 КГц
Частота кадров : 31,250 кадров/сек (1536 spf)
Метод сжатия : С потерями
Размер потока : 701 Кбайт (2%)

Текст
Идентификатор : 189 (0xBD)-32 (0x20)
Формат : RLE
Формат/Информация : Run-length encoding
Режим смешивания : DVD-Video

Меню

Общее
Полное имя : F:\Tales_From_The_Crypt\vol_1\VIDEO_TS\VTS_03_1.VOB
Формат : MPEG-PS
Размер файла : 954 Мбайт
Продолжительность : 51 м.
Режим общего битрейта : Переменный
Общий поток : 2606 Кбит/сек

Видео
Идентификатор : 224 (0xE0)
Формат : MPEG Video
Версия формата : Version 2
Профиль формата : Main@Main
Параметр BVOP формата : Да
Параметр матрицы формата : Выборочная
Параметр GOP формата : Variable
Структура изображения : Frame
Продолжительность : 51 м.
Вид битрейта : Переменный
Битрейт : 2363 Кбит/сек
Максимальный битрейт : 8000 Кбит/сек
Ширина : 720 пикселей
Высота : 576 пикселей
Соотношение сторон : 4:3
Частота кадров : 25,000 кадров/сек
Стандарт вещания : PAL
Цветовое пространство : YUV
Субдискретизация насыщенности : 4:2:0
Битовая глубина : 8 бит
Тип развёртки : Чересстрочная
Порядок развёртки : Нижнее поле первое
Метод сжатия : С потерями
Бит/(Пиксели*Кадры) : 0.228
Временной код первого кадра : 00:00:00:00
Оригинал временного кода : Group of pictures header
GOP, открыто/закрыто : Открыто
GOP, открыто/закрыто на первом кадре : Закрыто
Размер потока : 865 Мбайт (91%)

Аудио
Идентификатор : 189 (0xBD)-128 (0x80)
Формат : AC-3
Формат/Информация : Audio Coding 3
Расширение режима : CM (complete main)
Параметр Endianness формата : Big
Режим смешивания : DVD-Video
Продолжительность : 51 м.
Вид битрейта : Постоянный
Битрейт : 192 Кбит/сек
Каналы : 2 канала
Расположение каналов : Front: L R
Частота : 48,0 КГц
Частота кадров : 31,250 кадров/сек (1536 spf)
Метод сжатия : С потерями
Размер потока : 70,3 Мбайт (7%)

Меню

Общее
Полное имя : F:\Tales_From_The_Crypt\vol_1\VIDEO_TS\VTS_03_2.VOB
Формат : MPEG-PS
Размер файла : 431 Мбайт
Продолжительность : 30 м.
Режим общего битрейта : Переменный
Общий поток : 1952 Кбит/сек

Видео
Идентификатор : 224 (0xE0)
Формат : MPEG Video
Версия формата : Version 2
Профиль формата : Main@Main
Параметр BVOP формата : Да
Параметр матрицы формата : Выборочная
Параметр GOP формата : Variable
Структура изображения : Frame
Продолжительность : 30 м.
Вид битрейта : Переменный
Битрейт : 1721 Кбит/сек
Максимальный битрейт : 8000 Кбит/сек
Ширина : 720 пикселей
Высота : 576 пикселей
Соотношение сторон : 4:3
Частота кадров : 25,000 кадров/сек
Стандарт вещания : PAL
Цветовое пространство : YUV
Субдискретизация насыщенности : 4:2:0
Битовая глубина : 8 бит
Тип развёртки : Чересстрочная
Порядок развёртки : Нижнее поле первое
Метод сжатия : С потерями
Бит/(Пиксели*Кадры) : 0.166
Временной код первого кадра : 00:51:10:02
Оригинал временного кода : Group of pictures header
GOP, открыто/закрыто : Открыто
Размер потока : 380 Мбайт (88%)

Аудио
Идентификатор : 189 (0xBD)-128 (0x80)
Формат : AC-3
Формат/Информация : Audio Coding 3
Расширение режима : CM (complete main)
Параметр Endianness формата : Big
Режим смешивания : DVD-Video
Продолжительность : 30 м.
Вид битрейта : Постоянный
Битрейт : 192 Кбит/сек
Каналы : 2 канала
Расположение каналов : Front: L R
Частота : 48,0 КГц
Частота кадров : 31,250 кадров/сек (1536 spf)
Метод сжатия : С потерями
Задержка видео : -208 мс.
Размер потока : 42,4 Мбайт (10%)

Меню





_________________
Проголосуй за трекер Открытый торрент трекер - RUS-MEDIA.ORG

Не забудьте оставить комментарий!



реклама партнёра


Вернуться к началу
 Профиль Отправить личное сообщение  
 
   Похожие торренты   Автор   Торрент   Размер 
В этой теме нет новых непрочитанных сообщений. Байки из склепа: Демон ночи / Tales from the Crypt: Demon Knight [ужасы, фэнтези, триллер, комедия, 1995] HDRip, Mvo [R5]

salma3

31 | 6

1.46 ГБ

В этой теме нет новых непрочитанных сообщений. Байки из склепа: Демон ночи / Tales from the Crypt: Demon Knight [ужасы, фэнтези, триллер, комедия, 1995] BDRip 1080p, mvo+avo+sub

salma3

53 | 8

7.75 ГБ

В этой теме нет новых непрочитанных сообщений. Байки из склепа: Демон ночи / Tales from the Crypt: Demon Knight [Ужасы, Фантастика, 1995] BDRip-AVC, Mvo

salma3

66 | 8

2.17 ГБ

В этой теме нет новых непрочитанных сообщений. Байки из склепа: Кровавый бордель / Bordello of Blood [Ужасы, Фэнтези, Комедия, 1996] BDRip-AVC, Mvo+Avo

salma3

249 | 51

2.18 ГБ

В этой теме нет новых непрочитанных сообщений. Феникс & Тарантул - Байки из Склепа [2010, Heavy Metal, MP3]

PriZraK

0 | 1

114.93 МБ

В этой теме нет новых непрочитанных сообщений. Байки из могилы / From Beyond the Grave [ужасы, фэнтези, 1973] DVDRip, Avo

salma3

48 | 2

1.37 ГБ

В этой теме нет новых непрочитанных сообщений. Склеп / The Crypt [Ужасы, Триллер, 2009] BDRip, Dvo

salma3

0 | 2

1.46 ГБ


Начать новую тему Ответить на тему  [ 1 сообщение ] 




Для Мосгорсуда, Роскомнадзора и рекламодателей:: mosgorsud-torrent[собачка]yandex.ru