Торрент файл
скачать торрент магнет ссылка Добавлен: 02 мар 2016, 22:12
Размер: 4.38 ГБ
Сидеров: 130
Личеров: 42
Автор

СообщениеДобавлено: 02 мар 2016, 22:12 

Не в сети
Супермодератор
Аватара пользователя
Дата регистрации:
15 фев 2012, 16:44
Возраст: 27
Спасибо: 5130 / 2089
Сообщения: 17349
Год выхода: 2015
Жанр: фэнтези, боевик, приключения
Режиссер: Брек Эйснер

В ролях: Вин Дизель, Роуз Лесли, Элайджа Вуд, Оулавюр Дарри Оулафссон, Рина Оуэн, Юли Энгельбрехт, Майкл Кейн, Джозеф Гилган, Исаак Де Банколе, Майкл Халсли


О фильме:
Современный мир скрывает множество секретов, но самым удивительным из них является то, что ведьмы до сих пор живут среди нас. Это злобные сверхъестественные существа, чья цель — наслать на мир смертоносную чуму. Армии охотников на ведьм сражались с ними на протяжении многих веков.
В наши дни остался всего лишь один охотник на ведьм, Колдер, которому однажды удалось убить всемогущую королеву ведьм. Но Колдер еще не знает, что королева воскресла и жаждет отомстить своему убийце…





Страна: США, Китай, Канада
Студия: Atmosphere Entertainment MM, Summit Entertainment
Продолжительность: 102 мин. / 01:42
Перевод: полное дублирование

Файл
Кодек: MPEG2
Качество: DVD5 (сжатый)
Видео: PAL 16:9 (720x576@1024x576) VBR 5899 Kbps, 25.000 fps
Аудио: Dolby AC3, 6 ch, 48.0 KHz, 448 Kbps
Субтитры: украинские

Исходник: Последний охотник на ведьм / The Last Witch Hunter (2015) DVD9 от New-Team | Лицензия
Удалены: бонусы, предупреждающие надписи (в меню кнопки затерты). Команды диска переписаны заново, оставлены два VTS.
Видео сжато на 24.8%
Меню: статичное, недействующие кнопки затерты и закрыты.
Обработка и сжатие: DVD ReMake Pro + DVD Rebuilder + CCE SP2 [7 проходов] + Работа с меню (Adobe PhotoShop и MuxMan).
Автор релиза: J9-1000
Общее
Полное имя : D:The Last Witch Hunter (2015) DVD5VIDEO_TSVTS_02_4.VOB
Формат : MPEG-PS
Размер файла : 1024 Мбайт
Продолжительность : 22 м.
Режим общего битрейта : Переменный
Общий поток : 6476 Кбит/сек
Видео
Идентификатор : 224 (0xE0)
Формат : MPEG Video
Версия формата : Version 2
Профиль формата : Main@Main
Параметр BVOP формата : Да
Параметр матрицы формата : По умолчанию
Параметр GOP формата : M=3, N=12
Продолжительность : 22 м.
Вид битрейта : Переменный
Битрейт : 5899 Кбит/сек
Максимальный битрейт : 8500 Кбит/сек
Ширина : 720 пикселей
Высота : 576 пикселей
Соотношение сторон : 16:9
Частота кадров : 25,000 кадров/сек
Стандарт вещания : PAL
Цветовое пространство : YUV
Субдискретизация насыщенности : 4:2:0
Битовая глубина : 8 бит
Тип развёртки : Прогрессивная
Метод сжатия : С потерями
Бит/(Пиксели*Кадры) : 0.569
Временной код первого кадра : 01:07:56:18
Оригинал временного кода : Group of pictures header
GOP, открыто/закрыто : Открыто
Размер потока : 933 Мбайт (91%)
Аудио
Идентификатор : 189 (0xBD)-128 (0x80)
Формат : AC-3
Формат/Информация : Audio Coding 3
Расширение режима : CM (complete main)
Параметр Endianness формата : Big
Режим смешивания : DVD-Video
Продолжительность : 22 м.
Вид битрейта : Постоянный
Битрейт : 448 Кбит/сек
Каналы : 6 каналов
Расположение каналов : Front: L C R, Side: L R, LFE
Частота : 48,0 КГц
Битовая глубина : 16 бит
Метод сжатия : С потерями
Задержка видео : -608 мс.
Размер потока : 70,8 Мбайт (7%)
Текст #1
Идентификатор : 189 (0xBD)-33 (0x21)
Формат : RLE
Формат/Информация : Run-length encoding
Режим смешивания : DVD-Video
Текст #2
Идентификатор : 189 (0xBD)-34 (0x22)
Формат : RLE
Формат/Информация : Run-length encoding
Режим смешивания : DVD-Video
Меню



_________________



реклама партнёра


Вернуться к началу
 Профиль Отправить личное сообщение  
 
   Похожие торренты   Автор   Торрент   Размер 
В этой теме нет новых непрочитанных сообщений. Последний охотник на ведьм / The Last Witch Hunter [фэнтези, боевик, приключения, 2015] HDRip, Dub [iTunes]

Dracon

1400 | 33

1.37 ГБ

В этой теме нет новых непрочитанных сообщений. Последний охотник на ведьм / The Last Witch Hunter [фэнтези, боевик, приключения, 2015] BDRip, Avo [Гаврилов]

salma3

108 | 7

1.46 ГБ

В этой теме нет новых непрочитанных сообщений. Последний охотник на ведьм / The Last Witch Hunter [фэнтези, боевик, приключения, 2015] HDRip, Dub [iTunes]

Dracon

235 | 5

2.05 ГБ

В этой теме нет новых непрочитанных сообщений. Последний охотник на ведьм / The Last Witch Hunter [фэнтези, боевик, приключения, 2015] BDRip 720p, Dub [iTunes]

Dracon

189 | 15

5.75 ГБ

В этой теме нет новых непрочитанных сообщений. Последний охотник на ведьм / The Last Witch Hunter [фэнтези, боевик, приключения, 2015] BDRip 1080p, Dub [iTunes]

Dracon

468 | 44

7.94 ГБ

В этой теме нет новых непрочитанных сообщений. Безмолвный охотник / Silent Hunter [Боевик, 1995] DVDRip, Avo

salma3

335 | 14

1.37 ГБ

В этой теме нет новых непрочитанных сообщений. Уличный охотник / Street Hunter [боевик, драма, 1990] VHSRip, Avo

salma3

42 | 3

757.79 МБ


Начать новую тему Ответить на тему  [ 1 сообщение ] 




Для Мосгорсуда, Роскомнадзора и рекламодателей:: mosgorsud-torrent[собачка]yandex.ru