Торрент файл
скачать торрент магнет ссылка Добавлен: 02 мар 2016, 16:39
Размер: 4.35 ГБ
Сидеров: 3
Личеров: 2
Автор

СообщениеДобавлено: 02 мар 2016, 16:39 

В сети
Супермодератор
Аватара пользователя
Дата регистрации:
15 фев 2012, 16:44
Возраст: 27
Спасибо: 5130 / 2089
Сообщения: 17350
Сумасшедшие на стадионе / Les fous du stade

Перевод: Профессиональный (полное дублирование)
Cубтитры: чешские
Формат: DVD5, DVD Video, MPEG2, AC3
Страна: Франция
Режиссер: Клод Зиди
Жанр: комедия, спорт
Продолжительность: 01:28:54
Год выпуска: 1972

В ролях: Жан-Ги Фешнер, Жерар Филипелли, Жерар Ринальди, Жан Саррюс, Поль Пребуа, Мартина Келли, Жерар Крос, Жак Сейлер, Франсуа Каде, Патрик Жиль

Описание: В маленьком французском городке должны состояться спортивные соревнования. Весь город украшен флагами и транспарантами, но тут появляются они, и все в очередной раз становится с ног на голову.
Парни собираются принять участие в состязаниях, чтобы доказать, что они не хуже известных и сильных спортсменов могут завоевывать призовые места. Их способы борьбы за первенство хоть и не очень честны, но уж очень смешны…


Рейтинг на КиноПоиск.RU:7.781
Рейтинг на IMDB:5.7/10

Видео: 720x576p (PAL 2.40:1), MPEG2 Video, 25 fps, ~ 6 347 Kbps, 0.612 Bits/(Pixel*Frame)
Аудио#1: Русский: 48.0 KHz, (AC-3), 2 ch, ~ 192 Kbps avg [Профессиональный (полное дублирование)]
Аудио#2: Русский: 48.0 KHz, (AC-3), 2 ch, ~ 192 Kbps avg [Профессиональный (многоголосый, закадровый)
Аудио#3: Чешский: 48.0 KHz, (AC-3), 2 ch, ~ 192 Kbps avg
Аудио#4: Французский: 48.0 KHz, (AC-3), 2 ch, ~ 224 Kbps avg [Оригинад]


General
Complete name : G:\Сумасшедшие на стадионе\VIDEO_TS\VTS_01_1.VOB
Format : MPEG-PS
File size : 1 024 MiB
Duration : 19mn 37s
Overall bit rate mode : Variable
Overall bit rate : 7 292 Kbps

Video
ID : 224 (0xE0)
Format : MPEG Video
Format version : Version 2
Format profile : Main@Main
Format settings, BVOP : Yes
Format settings, Matrix : Default
Format settings, GOP : M=3, N=13
Duration : 19mn 37s
Bit rate mode : Variable
Bit rate : 6 347 Kbps
Maximum bit rate : 8 200 Kbps
Width : 720 pixels
Height : 576 pixels
Display aspect ratio : 2.40:1
Frame rate : 25.000 fps
Standard : PAL
Color space : YUV
Chroma subsampling : 4:2:0
Bit depth : 8 bits
Scan type : Interlaced
Scan order : Top Field First
Compression mode : Lossy
Bits/(Pixel*Frame) : 0.612
Time code of first frame : 10:00:00:00
Time code source : Group of pictures header
Stream size : 891 MiB (87%)
Color primaries : BT.601 PAL
Transfer characteristics : BT.470 System B, BT.470 System G
Matrix coefficients : BT.601

Audio #1
ID : 189 (0xBD)-128 (0x80)
Format : AC-3
Format/Info : Audio Coding 3
Mode extension : CM (complete main)
Format settings, Endianness : Big
Muxing mode : DVD-Video
Duration : 19mn 37s
Bit rate mode : Constant
Bit rate : 192 Kbps
Channel(s) : 2 channels
Channel positions : Front: L R
Sampling rate : 48.0 KHz
Bit depth : 16 bits
Compression mode : Lossy
Stream size : 27.0 MiB (3%)

Audio #2
ID : 189 (0xBD)-129 (0x81)
Format : AC-3
Format/Info : Audio Coding 3
Mode extension : CM (complete main)
Format settings, Endianness : Big
Muxing mode : DVD-Video
Duration : 19mn 37s
Bit rate mode : Constant
Bit rate : 192 Kbps
Channel(s) : 2 channels
Channel positions : Front: L R
Sampling rate : 48.0 KHz
Bit depth : 16 bits
Compression mode : Lossy
Stream size : 27.0 MiB (3%)

Audio #3
ID : 189 (0xBD)-130 (0x82)
Format : AC-3
Format/Info : Audio Coding 3
Mode extension : CM (complete main)
Format settings, Endianness : Big
Muxing mode : DVD-Video
Duration : 19mn 37s
Bit rate mode : Constant
Bit rate : 192 Kbps
Channel(s) : 2 channels
Channel positions : Front: L R
Sampling rate : 48.0 KHz
Bit depth : 16 bits
Compression mode : Lossy
Stream size : 27.0 MiB (3%)

Audio #4
ID : 189 (0xBD)-131 (0x83)
Format : AC-3
Format/Info : Audio Coding 3
Mode extension : CM (complete main)
Format settings, Endianness : Big
Muxing mode : DVD-Video
Duration : 19mn 37s
Bit rate mode : Constant
Bit rate : 224 Kbps
Channel(s) : 2 channels
Channel positions : Front: L R
Sampling rate : 48.0 KHz
Bit depth : 16 bits
Compression mode : Lossy
Stream size : 31.4 MiB (3%)

Text #1
ID : 189 (0xBD)-32 (0x20)
Format : RLE
Format/Info : Run-length encoding
Muxing mode : DVD-Video

Text #2
ID : 189 (0xBD)-33 (0x21)
Format : RLE
Format/Info : Run-length encoding
Muxing mode : DVD-Video

Menu





















_________________



реклама партнёра


Вернуться к началу
 Профиль Отправить личное сообщение  
 
   Похожие торренты   Автор   Торрент   Размер 
В этой теме нет новых непрочитанных сообщений. Сумасшедшие гонки / Herbie: Fully Loaded [Комедия, приключения, семейный, спорт, фэнтези, 2005] WEB-DL 720p, Dub+2Mvo+Sub

salma3

33 | 6

4.07 ГБ

В этой теме нет новых непрочитанных сообщений. Сумасшедшие карабинеры / I carabbimatti [комедия, 1981] DVDRip, Avo

salma3

15 | 2

1.37 ГБ

В этой теме нет новых непрочитанных сообщений. Забойный реванш / Grudge Match [комедия, спорт, 2013] DVD5, Dub+Sub

Dracon

19 | 2

4.37 ГБ

В этой теме нет новых непрочитанных сообщений. Сумасшедшие азиатки GF's 2 / Crazy Asian GF's 2 (2016) DVDRip

Dievas

2 | 1

2.02 ГБ

В этой теме нет новых непрочитанных сообщений. Сумасшедшие / Лунатики / Din lo jing juen [драма, 1986] DVDRip, Avo

salma3

5 | 3

1.46 ГБ

В этой теме нет новых непрочитанных сообщений. Сумасшедшие суки / Crazy Bitches (Джейн Кларк) [ужасы, 2014] WEB-DLRip, dvo

Dracon

2 | 1

1.46 ГБ

В этой теме нет новых непрочитанных сообщений. Сумасшедшие суки / Crazy Bitches (Джейн Кларк) [ужасы, 2014] WEB-DL 720p, dvo

Dracon

225 | 10

3.4 ГБ


Начать новую тему Ответить на тему  [ 1 сообщение ] 




Для Мосгорсуда, Роскомнадзора и рекламодателей:: mosgorsud-torrent[собачка]yandex.ru