Торрент файл
скачать торрент магнет ссылка Добавлен: 02 мар 2016, 16:38
Размер: 4.36 ГБ
Сидеров: 0
Личеров: 3
Автор

СообщениеДобавлено: 02 мар 2016, 16:38 

Не в сети
Супермодератор
Аватара пользователя
Дата регистрации:
15 фев 2012, 16:44
Возраст: 28
Спасибо: 6577 / 2142
Сообщения: 43856
Жидкое небо / Liquid Sky

Перевод: Авторский (одноголосый)
Cубтитры: русские
Формат: DVD5, DVD Video, MPEG2, AC3
Страна: США
Режиссер: Слава Цукерман
Жанр: фантастика, комедия
Продолжительность: 01:48:37
Год выпуска: 1982

В ролях: Энн Карлайл, Пола Э. Шеппард, Сьюзэн Ди, Отто фон Вернхерр, Боб Брэйди, Илэйн С. Гроув, Стэнли Кнапп, Джек Эдалист, Ллойд Зифф, Гарри Льюм

Описание: НЛО прилетает на землю и исследует среду панков и индустриальщиков. Инопланетяне обнаруживают способ получения наслаждения, — убивая людей во время приёма наркотиков и секса.

Рейтинг на КиноПоиск.RU: 8.191
Рейтинг на IMDB:6.1/10
Рейтинг МРАА:R

Видео: 720x480i, (NTSC 4:3), MPEG2 Video, 29.970 fps, ~ 3 872 Kbps, 0.374 Bits/(Pixel*Frame)
Аудио#1: Русский: 48.0 KHz, (АС-3), 2 ch, ~ 192 Kbps avg[Авторский (одноголосый)А. Алексеев]
Аудио#2: Английский: 48.0 KHz, (AC-3), 2 ch, ~ 448 Kbps avg [Оригинал]


General
Complete name : D:\ЗАГРУЗКИ\ЖИДКОЕ НЕБО\VIDEO_TS\VTS_01_1.VOB
Format : MPEG-PS
File size : 1 024 MiB
Duration : 31mn 5s
Overall bit rate mode : Variable
Overall bit rate : 4 604 Kbps

Video
ID : 224 (0xE0)
Format : MPEG Video
Format version : Version 2
Format profile : Main@Main
Format settings, BVOP : Yes
Format settings, Matrix : Default
Format settings, GOP : Variable
Format settings, picture structure : Field
Duration : 31mn 5s
Bit rate mode : Variable
Bit rate : 3 872 Kbps
Maximum bit rate : 4 000 Kbps
Width : 720 pixels
Height : 480 pixels
Display aspect ratio : 4:3
Frame rate : 29.970 fps
Standard : NTSC
Color space : YUV
Chroma subsampling : 4:2:0
Bit depth : 8 bits
Scan type : Interlaced
Scan order : Top Field First
Compression mode : Lossy
Bits/(Pixel*Frame) : 0.374
Time code of first frame : 01:00:17;25
Time code source : Group of pictures header
Stream size : 861 MiB (84%)
Color primaries : BT.601 PAL
Transfer characteristics : BT.470 System B, BT.470 System G
Matrix coefficients : BT.601

Audio #1
ID : 189 (0xBD)-128 (0x80)
Format : AC-3
Format/Info : Audio Coding 3
Mode extension : CM (complete main)
Format settings, Endianness : Big
Muxing mode : DVD-Video
Duration : 31mn 5s
Bit rate mode : Constant
Bit rate : 192 Kbps
Channel(s) : 2 channels
Channel positions : Front: L R
Sampling rate : 48.0 KHz
Bit depth : 16 bits
Compression mode : Lossy
Stream size : 42.7 MiB (4%)

Audio #2
ID : 189 (0xBD)-129 (0x81)
Format : AC-3
Format/Info : Audio Coding 3
Mode extension : CM (complete main)
Format settings, Endianness : Big
Muxing mode : DVD-Video
Duration : 31mn 5s
Bit rate mode : Constant
Bit rate : 448 Kbps
Channel(s) : 2 channels
Channel positions : Front: L R
Sampling rate : 48.0 KHz
Bit depth : 16 bits
Compression mode : Lossy
Stream size : 99.6 MiB (10%)

Text #1
ID : 189 (0xBD)-32 (0x20)
Format : RLE
Format/Info : Run-length encoding
Muxing mode : DVD-Video
Duration : 31mn 4s
Delay relative to video : 600ms

Text #2
ID : 189 (0xBD)-33 (0x21)
Format : RLE
Format/Info : Run-length encoding
Muxing mode : DVD-Video
Duration : 31mn 4s
Delay relative to video : 600ms

Menu



















_________________
Проголосуй за трекер Открытый торрент трекер - RUS-MEDIA.ORG

Проголосуй Открытый торрент трекер - RUS-MEDIA.ORG



реклама партнёра


Вернуться к началу
 Профиль Отправить личное сообщение  
 
   Похожие торренты   Автор   Торрент   Размер 
В этой теме нет новых непрочитанных сообщений. Госпиталь «Британия» / Britannia Hospital [фантастика, комедия, 1982] WEBRip, Mvo

salma3

99 | 37

1.45 ГБ

В этой теме нет новых непрочитанных сообщений. Госпиталь Британия / Britannia Hospital [комедия, фантастика, 1982] WEB-DL 1080p, Dvo

salma3

24 | 30

12.33 ГБ

В этой теме нет новых непрочитанных сообщений. Больше, чем небо / Bigger Than the Sky [комедия, мелодрама, 2005] DVDRip, Avo

salma3

28 | 10

1.37 ГБ

В этой теме нет новых непрочитанных сообщений. Высокое небо / Поднебесье / Sky High [комедия, приключения, 1985] DVDRip, Avo

salma3

100 | 46

1.37 ГБ

В этой теме нет новых непрочитанных сообщений. Экстро / Xtro [ужасы, фантастика, 1982] BDRip-AVC, Avo

salma3

5 | 114

2.67 ГБ

В этой теме нет новых непрочитанных сообщений. Экстро / Xtro [ужасы, фантастика, 1982] DVDRip-AVC, Avo

salma3

38 | 13

744.42 МБ

В этой теме нет новых непрочитанных сообщений. Liquid Space And Doctor Goa - Our Mission [Psychedelic, 2014] MP3, 320 kbps

Dracon

8 | 2

171.54 МБ


Начать новую тему Ответить на тему  [ 1 сообщение ] 




Для Мосгорсуда, Роскомнадзора и рекламодателей:: mosgorsud-torrent[собачка]yandex.ru