Торрент файл
скачать торрент магнет ссылка Добавлен: 02 мар 2016, 16:36
Размер: 4.36 ГБ
Сидеров: 0
Личеров: 3
Автор

СообщениеДобавлено: 02 мар 2016, 16:36 

В сети
Супермодератор
Аватара пользователя
Дата регистрации:
15 фев 2012, 16:44
Возраст: 27
Спасибо: 5148 / 2090
Сообщения: 17558
Перевод: Профессиональный (многоголосый, закадровый)
Cубтитры: английские
Формат: DVD5, DVD Video, MPEG2, AC3
Страна: Великобритания
Режиссер: Бэзил Дирден
Жанр: боевик, триллер, комедия, криминал, приключения
Продолжительность: 01:49:53
Год выпуска: 1969

В ролях: Оливер Рид, Дайана Ригг, Телли Савалас, Курд Юргенс, Филипп Нуаре, Уоррен Митчелл, Берил Рид, Клайв Ревилл, Кеннет Гриффит, Вернон Добчефф

Описание: Девушка, одержимая идеей равенства полов, Соня Винтер, ввязывается в весьма опасную авантюру. Став клиентом фирмы под устрашающим названием «Бюро убийств», она заказывает убийство самого главы этой организации Ивана Драгомилова. Иван, хорошо образованный молодой человек с высокими моральными устоями, унаследовавший дело своего отца, принимает заказ, бросив тем самым дерзкий вызов всем остальным членам организации…

Рейтинг на КиноПоиск.RU:7.261
Рейтинг на IMDB:6.8/10
Рейтинг МРАА:PG

Видео: 720x480p, (NTSC 16:9), MPEG2 Video, 23.976 fps, ~ 5 409 Kbps, 0.653 Bits/(Pixel*Frame)
Аудио#1: Русский:48.0 KHz, (AC-3), 2 ch, ~ 160 Kbps [Профессиональный (многоголосый, закадровый)]
Аудио#2: Английский:48.0 KHz, (AC-3), 2 ch, ~ 192 Kbp [Оригианл]


General
Complete name : D:\Бюро убийств DVD5\VIDEO_TS\VTS_02_1.VOB
Format : MPEG-PS
File size : 1 024 MiB
Duration : 24mn 21s
Overall bit rate mode : Variable
Overall bit rate : 5 878 Kbps

Video
ID : 224 (0xE0)
Format : MPEG Video
Format version : Version 2
Format profile : Main@Main
Format settings, BVOP : Yes
Format settings, Matrix : Custom
Format settings, GOP : Variable
Duration : 24mn 21s
Bit rate mode : Variable
Bit rate : 5 409 Kbps
Maximum bit rate : 9 802 Kbps
Width : 720 pixels
Height : 480 pixels
Display aspect ratio : 16:9
Frame rate : 23.976 fps
Standard : Component
Color space : YUV
Chroma subsampling : 4:2:0
Bit depth : 8 bits
Scan type : Progressive
Scan order : 2:3 Pulldown
Compression mode : Lossy
Bits/(Pixel*Frame) : 0.653
Time code of first frame : 00:00:00:00
Time code source : Group of pictures header
Stream size : 942 MiB (92%)
Color primaries : BT.601 NTSC
Transfer characteristics : BT.601
Matrix coefficients : BT.601

Audio #1
ID : 189 (0xBD)-128 (0x80)
Format : AC-3
Format/Info : Audio Coding 3
Mode extension : CM (complete main)
Format settings, Endianness : Big
Muxing mode : DVD-Video
Duration : 24mn 21s
Bit rate mode : Constant
Bit rate : 160 Kbps
Channel(s) : 2 channels
Channel positions : Front: L R
Sampling rate : 48.0 KHz
Bit depth : 16 bits
Compression mode : Lossy
Stream size : 27.9 MiB (3%)

Audio #2
ID : 189 (0xBD)-129 (0x81)
Format : AC-3
Format/Info : Audio Coding 3
Mode extension : CM (complete main)
Format settings, Endianness : Big
Muxing mode : DVD-Video
Duration : 24mn 21s
Bit rate mode : Constant
Bit rate : 192 Kbps
Channel(s) : 2 channels
Channel positions : Front: L R
Sampling rate : 48.0 KHz
Bit depth : 16 bits
Compression mode : Lossy
Stream size : 33.4 MiB (3%)

Text #1
ID : 189 (0xBD)-32 (0x20)
Format : RLE
Format/Info : Run-length encoding
Muxing mode : DVD-Video
Duration : 24mn 6s
Delay relative to video : 14s 414ms

Text #2
ID : 224 (0xE0)-CC3
Format : EIA-608
Muxing mode, more info : Muxed in Video #1
Bit rate mode : Constant
Stream size : 0.00 Byte (0%)

Menu























_________________



реклама партнёра


Вернуться к началу
 Профиль Отправить личное сообщение  
 
   Похожие торренты   Автор   Торрент   Размер 
В этой теме нет новых непрочитанных сообщений. Итальянская работа / The Italian Job [Боевик, триллер, комедия, криминал, 1969] BDRip 720p Mvo+Sub

salma3

47 | 0

5.28 ГБ

В этой теме нет новых непрочитанных сообщений. Ну погоди! [01-25 из 25] (Вячеслав Котёночкин, Юрий Бутырин, Владимир Тарасов...) [1969-2006, мультфильм, комедия, семейный, приключения, DVD5]

Nickolas3435

696 | 58

4.36 ГБ

В этой теме нет новых непрочитанных сообщений. Игры киллеров / Assassination Games [Боевик, триллер, 2011] BDRip 1080p, Dub+Sub [лицензия]

salma3

46 | 7

7.09 ГБ

В этой теме нет новых непрочитанных сообщений. Игры киллеров / Assassination Games [Боевик, триллер, 2011] BDRip 720p, Dub [Лицензия]

salma3

26 | 3

3.93 ГБ

В этой теме нет новых непрочитанных сообщений. Игры киллеров / Assassination Games [Боевик, триллер, 2011] BDRemux 1080p, Dub+Sub [лицензия]

salma3

15 | 3

20.16 ГБ

В этой теме нет новых непрочитанных сообщений. Класс убийц / Ansatsu kyôshitsu the Movie / Assassination Classroom (Эйчиро Хасуми) [фантастика, комедия, приключения, 2015] HDRip, mvo

Dracon

353 | 27

1.41 ГБ

В этой теме нет новых непрочитанных сообщений. Отдел по расследованию убийств / Homicide [Триллер, драма, криминал, 1991] DVDRip, Dvo

salma3

40 | 2

1.37 ГБ


Начать новую тему Ответить на тему  [ 1 сообщение ] 




Для Мосгорсуда, Роскомнадзора и рекламодателей:: mosgorsud-torrent[собачка]yandex.ru