Торрент файл
скачать торрент магнет ссылка Добавлен: 22 дек 2015, 21:18
Размер: 7.55 ГБ
Сидеров: 75
Личеров: 13
Автор

СообщениеДобавлено: 22 дек 2015, 21:18 

В сети
Супермодератор
Аватара пользователя
Дата регистрации:
15 фев 2012, 16:44
Возраст: 27
Спасибо: 5143 / 2090
Сообщения: 17475
Год выхода: 1994
Жанр: Фантастика
Режиссер: Стивен Норрингтон
В ролях: Брэд Дуриф, Эли Пугет, Уильям Хуткинс, Джон Шэриан, Мартин МакДугалл, Андреас Висневски, Ричард Брэйк, Алекс Брукс, Стюарт Ст. Пол, Джеки Совирис, Аннемари Зоула, Джули Кокс, Рональд Ферни, Лесли Лион, Джейсон Шеперд, Доминик Хоуксли, Рэйчел Вайз

О фильме: Боевой робот, запрограммированный только на уничтожение, вышел из-под контроля. Пульт управления этим чудовищем оказался в руках безумца-маньяка, ощутившего полную власть над людьми.Перед этим стальным чудовищем нет преград: огневые заслоны, бетонные стены, бронированные двери преодолеваются им без всяких усилий. Противостоять этому стальному монстру может только киберсолдат, в которого превращается один из преследуемых.



Продолжительность: 01:57:12
Перевод: Авторский (Визгунов, Кузнецов)
Файл
Кодек: MPEG-2
Качество: DVD-9
Видео: MPEG2, PAL 16:9 (720x576) VBR, 25,000 кадров/сек
Звук: Русский DD 2.0 (192 Kbps), Английский, Немецкий, DD 5.1 (448 Kbps)

Title:
Size: 7.55 Gb ( 7 913 768 KBytes ) - DVD-9
Enabled regions: 1, 2, 3, 4, 5, 6, 7, 8

VTS_01 :
Play Length: 01:57:12
Video: PAL 16:9 (720x576) VBR, Auto Pan&Scan
Audio:
Deutsch (Dolby AC3, 6 ch)
Russian (Dolby AC3, 2 ch)
English (Dolby AC3, 6 ch)
Russian (Dolby AC3, 2 ch)

VTS_02 :
Play Length: 00:06:38
Video: PAL 16:9 (720x576) VBR, Auto Pan&Scan
Audio:
Japanese (Dolby AC3, 2 ch)

VTS_03 :
Play Length: 00:02:52+00:01:31+00:03:02
Video: PAL 16:9 (720x576) VBR, Auto Pan&Scan
Audio:
Not specified (Dolby AC3, 2 ch)

VTS_04 :
Play Length:
Video: PAL 4:3 (704x576) VBR
Audio:
Deutsch (Dolby AC3, 2 ch)

VTS_05 :
Play Length:
Video: PAL 16:9 (720x576) VBR, Auto Pan&Scan
Audio:
Deutsch (Dolby AC3, 2 ch)

Menu Video:
PAL 16:9 (720x576) VBR
Auto Pan&Scan
Menu Audio:
Not specified (Dolby AC3, 2 ch)
Menu Subtitles:
Not specified
Menu English Language Unit :
Root Menu
Subpicture Menu
Audio Menu
Angle menu
Chapter (PTT) Menu
Общее
Полное имя : D:ААА2Машина смертиVIDEO_TSVTS_01_1.VOB
Формат : MPEG-PS
Размер файла : 1024 Мбайт
Продолжительность : 16 м.
Режим общего битрейта : Переменный
Общий поток : 8540 Кбит/сек

Видео
Идентификатор : 224 (0xE0)
Формат : MPEG Video
Версия формата : Version 2
Профиль формата : Main@Main
Параметр BVOP формата : Да
Параметр матрицы формата : Выборочная
Параметр GOP формата : Variable
Продолжительность : 16 м.
Вид битрейта : Переменный
Битрейт : 7090 Кбит/сек
Максимальный битрейт : 9800 Кбит/сек
Ширина : 720 пикселей
Высота : 576 пикселей
Соотношение сторон : 16:9
Частота кадров : 25,000 кадров/сек
Стандарт вещания : PAL
Цветовое пространство : YUV
Субдискретизация насыщенности : 4:2:0
Битовая глубина : 8 бит
Тип развёртки : Прогрессивная
Порядок развёртки : Верхнее поле первое
Метод сжатия : С потерями
Бит/(Пиксели*Кадры) : 0.684
TimeCode_FirstFrame : 00:00:00:00
TimeCode_Source : Group of pictures header
Размер потока : 850 Мбайт (83%)

Аудио #1
Идентификатор : 189 (0xBD)-128 (0x80)
Формат : AC-3
Формат/Информация : Audio Coding 3
Расширение режима : CM (complete main)
Параметр Endianness формата : Big
Режим смешивания : DVD-Video
Продолжительность : 16 м.
Вид битрейта : Постоянный
Битрейт : 448 Кбит/сек
Каналы : 6 каналов
Расположение каналов : Front: L C R, Side: L R, LFE
Частота : 48,0 КГц
Битовая глубина : 16 бит
Метод сжатия : С потерями
Размер потока : 53,7 Мбайт (5%)

Аудио #2
Идентификатор : 189 (0xBD)-129 (0x81)
Формат : AC-3
Формат/Информация : Audio Coding 3
Расширение режима : CM (complete main)
Параметр Endianness формата : Big
Режим смешивания : DVD-Video
Продолжительность : 16 м.
Вид битрейта : Постоянный
Битрейт : 192 Кбит/сек
Каналы : 2 канала
Расположение каналов : Front: L R
Частота : 48,0 КГц
Битовая глубина : 16 бит
Метод сжатия : С потерями
Размер потока : 23,0 Мбайт (2%)

Аудио #3
Идентификатор : 189 (0xBD)-130 (0x82)
Формат : AC-3
Формат/Информация : Audio Coding 3
Расширение режима : CM (complete main)
Параметр Endianness формата : Big
Режим смешивания : DVD-Video
Продолжительность : 16 м.
Вид битрейта : Постоянный
Битрейт : 448 Кбит/сек
Каналы : 6 каналов
Расположение каналов : Front: L C R, Side: L R, LFE
Частота : 48,0 КГц
Битовая глубина : 16 бит
Метод сжатия : С потерями
Размер потока : 53,7 Мбайт (5%)

Аудио #4
Идентификатор : 189 (0xBD)-131 (0x83)
Формат : AC-3
Формат/Информация : Audio Coding 3
Расширение режима : CM (complete main)
Параметр Endianness формата : Big
Режим смешивания : DVD-Video
Продолжительность : 16 м.
Вид битрейта : Постоянный
Битрейт : 192 Кбит/сек
Каналы : 2 канала
Расположение каналов : Front: L R
Частота : 48,0 КГц
Битовая глубина : 16 бит
Метод сжатия : С потерями
Размер потока : 23,0 Мбайт (2%)

Меню


Релиз:


_________________



реклама партнёра


Вернуться к началу
 Профиль Отправить личное сообщение  
 
   Похожие торренты   Автор   Торрент   Размер 
В этой теме нет новых непрочитанных сообщений. Жажда смерти 5: Лик смерти / Death Wish V: The Face of Death [Боевик, Криминал, Триллер, 1994] BDRip-AVC, mvo

salma3

17 | 4

2.85 ГБ

В этой теме нет новых непрочитанных сообщений. Машина / The Machine [фантастика, триллер, 2013] HDRip, Mvo [лицензия]

Dracon

18 | 2

1.36 ГБ

В этой теме нет новых непрочитанных сообщений. Машина / The Machine [фантастика, триллер, 2013] DVD5, Mvo [лицензия]

Dracon

35 | 7

4.2 ГБ

В этой теме нет новых непрочитанных сообщений. Машина / The Machine [фантастика, триллер, 2013] BDRip 720p, Mvo+Sub [Лицензия]

Dracon

5 | 2

4.33 ГБ

В этой теме нет новых непрочитанных сообщений. Машина / The Machine [фантастика, триллер, 2013] BDRip 1080p, Mvo+Sub [Лицензия]

Dracon

30 | 2

7.09 ГБ

В этой теме нет новых непрочитанных сообщений. Машина времени / The Time Machine [фантастика, боевик, приключения, 2002] BDRip 1080p, Dub+Sub

salma3

284 | 18

5.76 ГБ

В этой теме нет новых непрочитанных сообщений. Машина времени в джакузи 2 / Hot Tub Time Machine 2 (Стив Пинк) [фантастика, комедия, 2015] HDRip, dub [Чистый звук]

Dracon

590 | 18

1.37 ГБ


Начать новую тему Ответить на тему  [ 1 сообщение ] 




Для Мосгорсуда, Роскомнадзора и рекламодателей:: mosgorsud-torrent[собачка]yandex.ru