Торрент файл
скачать торрент магнет ссылка Добавлен: 13 ноя 2015, 16:16
Размер: 4.36 ГБ
Сидеров: 45
Личеров: 2
Автор

СообщениеДобавлено: 13 ноя 2015, 16:16 

Не в сети
Зам. Админа
Аватара пользователя
Дата регистрации:
02 дек 2010, 12:39
Спасибо: 12623 / 214
Сообщения: 28012
«Best Friend. Hero. Marine»


Год выпуска: 2015
Производство: США / Warner Bros. Pictures, Metro-Goldwyn-Mayer (MGM), Sunswept Entertainment
Жанр: Приключения, семейный
Режиссер: Боаз Якин
Продюсеры: Кен Бланкато, Карен Розенфельт, Бен Орманд
Актеры: Томас Хейден Чёрч, Джош Уиггинс, Люк Клеинтенк, Лорен Грэм, Робби Амелл, Mia Xitlali, Dejon LaQuake, Джей Эрнандес, Оуэн Харн, Джозеф Джулиан Сория

Описание фильма:
История о собаке, которая помогала солдатам в Афганистане. После трагического происшествия собаку забирает к себе домой семья ответственного за нее солдата.

Перевод: Профессиональный (многоголосый, закадровый)
Субтитры: Английские, русские
Дата мировой премьеры: 25 июня 2015


Продолжительность: 01:50:51
Качество видео: DVD5

Видео: MPEG-2, 720x480@853x480 (NTSC 16:9), ~4900 Кбит/сек
Аудио 1: AC3 5.1, 384 Кбит/сек [Английский - оригинал]
Аудио 2: AC3 5.1, 448 Кбит/сек [Русский - многоголосый, закадровый]

Title: Max (2015) DVD5 NTSC
Size: 4.36 Gb ( 4 576 990,00 KBytes ) - DVD-5
Enabled regions: 1, 2, 3, 4, 5, 6, 7, 8

VTS_01 :
Play Length: 01:50:51+00:00:01+00:00:00+00:00:01
Video: NTSC 16:9 (720x480) VBR, Auto Letterboxed
Audio:
English (Dolby AC3, 6 ch)
Russian (Dolby AC3, 6 ch)
Subtitles:
English
Russian
Russian

* Menus Information *

VIDEO_TS Menu
Video:
NTSC 16:9 (720x480) VBR
Auto Letterboxed
Language Unit :
Title Menu

VTS_01 Menu
Video:
NTSC 16:9 (720x480) VBR
Auto Pan&Scan
Audio:
Not specified (Dolby AC3, 2 ch)
English Language Unit :
Root Menu
Общее
Полное имя : G:ВидеоMax (2015) DVD5 NTSCVIDEO_TSVTS_01_4.VOB
Формат : MPEG-PS
Размер файла : 1024 Мбайт
Продолжительность : 24 м.
Режим общего битрейта : Переменный
Общий поток : 5869 Кбит/сек

Видео
Идентификатор : 224 (0xE0)
Формат : MPEG Video
Версия формата : Version 2
Профиль формата : Main@Main
Параметр BVOP формата : Да
Параметр матрицы формата : Выборочная
Параметр GOP формата : Variable
Продолжительность : 24 м.
Вид битрейта : Переменный
Битрейт : 4920 Кбит/сек
Максимальный битрейт : 7936 Кбит/сек
Ширина : 720 пикселей
Высота : 480 пикселей
Соотношение сторон : 16:9
Частота кадров : 23,976 кадра/сек
Стандарт вещания : NTSC
Цветовое пространство : YUV
Субдискретизация насыщенности : 4:2:0
Битовая глубина : 8 бит
Тип развёртки : Прогрессивная
Порядок развёртки : 2:3 Pulldown
Метод сжатия : С потерями
Бит/(Пиксели*Кадры) : 0.594
Временной код первого кадра : 01:16:45:11
Оригинал временного кода : Group of pictures header
GOP, открыто/закрыто : Открыто
Размер потока : 858 Мбайт (84%)

Аудио #1
Идентификатор : 189 (0xBD)-128 (0x80)
Формат : AC-3
Формат/Информация : Audio Coding 3
Расширение режима : CM (complete main)
Параметр Endianness формата : Big
Режим смешивания : DVD-Video
Продолжительность : 24 м.
Вид битрейта : Постоянный
Битрейт : 384 Кбит/сек
Каналы : 6 каналов
Расположение каналов : Front: L C R, Side: L R, LFE
Частота : 48,0 КГц
Битовая глубина : 16 бит
Метод сжатия : С потерями
Задержка видео : -488 мс.
Размер потока : 67,0 Мбайт (7%)

Аудио #2
Идентификатор : 189 (0xBD)-129 (0x81)
Формат : AC-3
Формат/Информация : Audio Coding 3
Расширение режима : CM (complete main)
Параметр Endianness формата : Big
Режим смешивания : DVD-Video
Продолжительность : 24 м.
Вид битрейта : Постоянный
Битрейт : 448 Кбит/сек
Каналы : 6 каналов
Расположение каналов : Front: L C R, Side: L R, LFE
Частота : 48,0 КГц
Битовая глубина : 16 бит
Метод сжатия : С потерями
Задержка видео : -520 мс.
Размер потока : 78,2 Мбайт (8%)

Текст #1
Идентификатор : 189 (0xBD)-32 (0x20)
Формат : RLE
Формат/Информация : Run-length encoding
Режим смешивания : DVD-Video

Текст #2
Идентификатор : 189 (0xBD)-33 (0x21)
Формат : RLE
Формат/Информация : Run-length encoding
Режим смешивания : DVD-Video

Меню

Исходник: Макс / Max (2015) DVD9 | Custom
Удалены: доп. материалы, описательная звуковая дорожка (в меню кнопки затёрты).
Команды диска переписаны заново, оставлен один VTS.
Видео сжато на 23,4%
Меню: статичное, недействующие кнопки затерты и закрыты.
Обработка и сжатие: DVD ReMake Pro + DVD Rebuilder + CCE SP2 [7 проходов] + Работа с меню (Adobe PhotoShop и MuxMan).




реклама партнёра


Вернуться к началу
 Профиль  
 
   Похожие торренты   Автор   Торрент   Размер 
В этой теме нет новых непрочитанных сообщений. Макс / Max (Боаз Якин) [приключения, семейный, 2015] Blu-Ray, Mvo+Sub [Лицензия]

Dracon

91 | 14

26.45 ГБ

В этой теме нет новых непрочитанных сообщений. Макс / Max (Боаз Якин) [приключения, семейный, 2015] HDRip, Mvo [iTunes]

Dracon

201 | 8

1.46 ГБ

В этой теме нет новых непрочитанных сообщений. Макс / Max (Боаз Якин) [приключения, семейный, 2015] BDRip 720p, Mvo+Sub [Лицензия]

Dracon

336 | 41

6.7 ГБ

В этой теме нет новых непрочитанных сообщений. Макс / Max (Боаз Якин) [приключения, семейный, 2015] BDRip 1080p, Mvo+Sub [Лицензия]

Dracon

303 | 25

12.12 ГБ

В этой теме нет новых непрочитанных сообщений. Безумный Макс: Дорога ярости / Mad Max: Fury Road (Джордж Миллер) [фантастика, боевик, триллер, приключения, 2015] DVD5, Dub+Sub

Dracon

187 | 25

4.37 ГБ

В этой теме нет новых непрочитанных сообщений. Безумный Макс: Дорога ярости / Mad Max: Fury Road (Джордж Миллер) [фантастика, боевик, триллер, приключения, 2015] DVD5, Dub+Sub

Dracon

248 | 69

4.36 ГБ

В этой теме нет новых непрочитанных сообщений. Макс. Динотерра / Max Adventures in Dinoterra / 2 сезон, 1-22 серии из 22 [приключения, фэнтези, семейный, 2013] SATRip, Dub

salma3

14 | 5

3.48 ГБ


Начать новую тему Ответить на тему  [ 1 сообщение ] 




Для Мосгорсуда, Роскомнадзора и рекламодателей:: mosgorsud-torrent[собачка]yandex.ru