Торрент файл
скачать торрент магнет ссылка Добавлен: 18 окт 2015, 17:04
Размер: 7.73 ГБ
Сидеров: 634
Личеров: 117
Автор

СообщениеДобавлено: 18 окт 2015, 17:04 

Не в сети
Зам. Админа
Аватара пользователя
Дата регистрации:
02 дек 2010, 12:39
Спасибо: 12460 / 214
Сообщения: 27968

Год выхода: 2015
Жанр: Боевик, триллер, вестерн
Режиссер: Тимоти Вудворд мл.
В ролях: Джонни Месснер, Дольф Лундгрен, Дэнни Трехо, Вивика А. Фокс, Майкл Паре, Наташа Мальте, Джон Лофлин, Энджелл Конвелл
О фильме:
Брайан Барнс просыпается в пустыне. Он ранен и без памяти, и не понимает, почему его окружают восемь трупов, фургон с четырьма миллионами наличными и еще один фургон с кокаином. Брайана преследует не только пресловутый наркобарон Дэнни Перес, который отчаянно хочет вернуть обратно свои деньги, но и агент Рукер, а также коррумпированный шериф Олсон, который не остановится ни перед чем, чтобы заполучить деньги. Чем больше Брайан вспоминает о прошлом, тем меньше он хочет знать о том, кто он на самом деле.


Страна: США, Status Media & Entertainment, Puppy Entertainment
Продолжительность: 01:24:08
Озвучено: Любительский одноголосый (Павел Морозов aka PashaUp)
Перевод фильма: Enigma

Кодек: H.264
Качество: BDRip 1080p
Видео: MPEG-4 AVC, 9701 Кбит/с, 1920х816, 23.976 кадр/с
Перевод: Русский (AC3, 6 ch, 448 Кбит/с), (DTS, 6 ch, 1510 Кбит/с), английский (DTS, 6 ch, 1510 Кбит/с)
Субтитры: Английские

Полное имя : F:4Got10.2015.x264.BDRip.1080p.NovaLan.mkv
Формат : Matroska
Версия формата : Version 4 / Version 2
Размер файла : 7,73 Гбайт
Продолжительность : 1 ч. 24 м.
Общий поток : 13,2 Мбит/сек
Название фильма : 4Got10 2015 - NovaLan
Дата кодирования : UTC 2015-10-17 22:01:01
Программа кодирования : mkvmerge v8.3.0 ('Over the Horizon') 64bit
Библиотека кодирования : libebml v1.3.1 + libmatroska v1.4.2
DURATION : 01:22:08.174000000
NUMBER_OF_FRAMES : 1136
NUMBER_OF_BYTES : 34895
_STATISTICS_WRITING_APP : mkvmerge v8.3.0 ('Over the Horizon') 64bit
_STATISTICS_WRITING_DATE_UTC : 2015-10-17 22:01:01
_STATISTICS_TAGS : BPS DURATION NUMBER_OF_FRAMES NUMBER_OF_BYTES

Видео
Идентификатор : 1
Формат : AVC
Формат/Информация : Advanced Video Codec
Профиль формата : High@L4.1
Параметр CABAC формата : Да
Параметр ReFrames формата : 4 кадра
Идентификатор кодека : V_MPEG4/ISO/AVC
Продолжительность : 1 ч. 24 м.
Битрейт : 9701 Кбит/сек
Ширина : 1920 пикселей
Высота : 816 пикселей
Соотношение сторон : 2,35:1
Частота кадров : 23,976 кадра/сек
Цветовое пространство : YUV
Субдискретизация насыщенности : 4:2:0
Битовая глубина : 8 бит
Тип развёртки : Прогрессивная
Бит/(Пиксели*Кадры) : 0.258
Размер потока : 5,54 Гбайт (72%)
Заголовок : Sergei7721
Библиотека кодирования : x264 core 146 r2538 121396c
Настройки программы : cabac=1 / ref=4 / deblock=1:-1:-1 / analyse=0x3:0x113 / me=umh / subme=11 / psy=1 / psy_rd=1.00:0.20 / mixed_ref=1 / me_range=24 / chroma_me=1 / trellis=2 / 8x8dct=1 / cqm=0 / deadzone=21,11 / fast_pskip=0 / chroma_qp_offset=-3 / threads=12 / lookahead_threads=1 / sliced_threads=0 / nr=0 / decimate=0 / interlaced=0 / bluray_compat=0 / constrained_intra=0 / bframes=6 / b_pyramid=2 / b_adapt=2 / b_bias=0 / direct=3 / weightb=1 / open_gop=0 / weightp=2 / keyint=240 / keyint_min=23 / scenecut=40 / intra_refresh=0 / rc_lookahead=40 / rc=2pass / mbtree=0 / bitrate=9701 / ratetol=1.0 / qcomp=0.60 / qpmin=0 / qpmax=69 / qpstep=4 / cplxblur=20.0 / qblur=0.5 / vbv_maxrate=50000 / vbv_bufsize=62500 / nal_hrd=none / filler=0 / ip_ratio=1.40 / pb_ratio=1.30 / aq=1:1.00
Default : Да
Forced : Нет
DURATION : 01:24:07.835000000
NUMBER_OF_FRAMES : 121027
NUMBER_OF_BYTES : 6114958916
_STATISTICS_WRITING_APP : mkvmerge v8.3.0 ('Over the Horizon') 64bit
_STATISTICS_WRITING_DATE_UTC : 2015-10-17 22:01:01
_STATISTICS_TAGS : BPS DURATION NUMBER_OF_FRAMES NUMBER_OF_BYTES

Аудио #1
Идентификатор : 2
Формат : AC-3
Формат/Информация : Audio Coding 3
Расширение режима : CM (complete main)
Параметр Endianness формата : Big
Идентификатор кодека : A_AC3
Продолжительность : 1 ч. 24 м.
Вид битрейта : Постоянный
Битрейт : 448 Кбит/сек
Каналы : 6 каналов
Расположение каналов : Front: L C R, Side: L R, LFE
Частота : 48,0 КГц
Битовая глубина : 16 бит
Метод сжатия : С потерями
Размер потока : 270 Мбайт (3%)
Язык : Russian
Default : Да
Forced : Нет

Аудио #2
Идентификатор : 3
Формат : DTS
Формат/Информация : Digital Theater Systems
Идентификатор кодека : A_DTS
Продолжительность : 1 ч. 24 м.
Вид битрейта : Постоянный
Битрейт : 1510 Кбит/сек
Каналы : 6 каналов
Расположение каналов : Front: L C R, Side: L R, LFE
Частота : 48,0 КГц
Битовая глубина : 24 бит
Метод сжатия : С потерями
Размер потока : 908 Мбайт (11%)
Язык : Russian
Default : Нет
Forced : Нет

Аудио #3
Идентификатор : 4
Формат : DTS
Формат/Информация : Digital Theater Systems
Идентификатор кодека : A_DTS
Продолжительность : 1 ч. 24 м.
Вид битрейта : Постоянный
Битрейт : 1510 Кбит/сек
Каналы : 6 каналов
Расположение каналов : Front: L C R, Side: L R, LFE
Частота : 48,0 КГц
Битовая глубина : 24 бит
Метод сжатия : С потерями
Размер потока : 908 Мбайт (11%)
Язык : English
Default : Нет
Forced : Нет

Текст
Идентификатор : 5
Формат : UTF-8
Идентификатор кодека : S_TEXT/UTF8
Идентификатор кодека/Информация : UTF-8 Plain Text
Язык : English
Default : Нет
Forced : Нет

Меню
00:00:00.000 : en:00:00:00.000
00:08:53.824 : en:00:08:53.824
00:19:11.275 : en:00:19:11.275
00:30:19.901 : en:00:30:19.901
00:42:13.072 : en:00:42:13.072
00:55:34.414 : en:00:55:34.414
01:08:47.122 : en:01:08:47.122
01:20:25.821 : en:01:20:25.821
01:24:07.834 : en:01:24:07.834






реклама партнёра


Вернуться к началу
 Профиль  
 
   Похожие торренты   Автор   Торрент   Размер 
В этой теме нет новых непрочитанных сообщений. Забыть / 4Got10 (Тимоти Вудворд мл.) [Боевик, триллер, вестерн, 2015] BDRemux 1080p, avo

Dracon

63 | 18

20.86 ГБ

В этой теме нет новых непрочитанных сообщений. Забыть / 4Got10 (Тимоти Вудворд мл.) [Боевик, триллер, вестерн, 2015] HDRip, avo

Dracon

3888 | 211

1.37 ГБ

В этой теме нет новых непрочитанных сообщений. Медленный Запад / Slow West (Джон Маклин) [боевик, триллер, вестерн, 2015] BDRip 1080p, Avo+dvo+Sub

Dracon

35 | 7

7.87 ГБ

В этой теме нет новых непрочитанных сообщений. Джейн берёт ружье / Jane Got a Gun [боевик, драма, вестерн, 2015] BDRip 1080p, Dub [Line]

salma3

625 | 214

7.79 ГБ

В этой теме нет новых непрочитанных сообщений. Строго на запад / Медленный Запад / Slow West [Боевик, триллер, вестерн, 2015] BDRip 720p, Dub+Avo+Sub [Лицензия]

Dracon

237 | 52

6.88 ГБ

В этой теме нет новых непрочитанных сообщений. Достоинство / The Timber [Драма, приключения, вестерн, 2015] BDRip 1080p, Mvo [Официальный звук]

salma3

403 | 131

5.87 ГБ

В этой теме нет новых непрочитанных сообщений. Фантом / Phantom [боевик, триллер, драма, 2015] BDRip 1080p, Mvo+Sub

salma3

20 | 2

9.71 ГБ


Начать новую тему Ответить на тему  [ 1 сообщение ] 




Для Мосгорсуда, Роскомнадзора и рекламодателей:: mosgorsud-torrent[собачка]yandex.ru