Торрент файл
скачать торрент магнет ссылка Добавлен: 18 окт 2015, 16:02
Размер: 4.36 ГБ
Сидеров: 244
Личеров: 61
Автор

СообщениеДобавлено: 18 окт 2015, 16:02 

Не в сети
Зам. Админа
Аватара пользователя
Дата регистрации:
02 дек 2010, 12:39
Спасибо: 12461 / 214
Сообщения: 27968
Год выпуска: 2015
Производство: США, Китай / Universal Pictures, Legendary Pictures, China Film Co., Amblin Entertainment
Жанр: Фантастика, приключения, боевик

Режиссер: Колин Треворроу
Продюсеры: Патрик Краули, Фрэнк Маршалл, Кристофер Раймо
Актеры: Крис Прэтт, Брайс Даллас Ховард, Ник Дж. Робинсон, Тай Симпкинс, Винсент Д`Онофрио, Ирфан Кхан, Омар Си, Б. Д. Вонг, Джейк Джонсон, Джуди Грир

Описание :
Тысячи людей спешат увидеть Мир Юрского периода, но безопасное на первый взгляд развлечение может обернуться угрозой для их жизней…

Перевод: Дублированный
Субтитры: Английские, русские

Дата мировой премьеры: 29 мая 2015
Дата российской премьеры: 11 июня 2015, «UPI»


Продолжительность: 01:59:16
Качество видео: DVD5
Видео: MPEG-2, 720x576@1024x576 (PAL 16:9), ~4900 Кбит/сек
Аудио 1: AC3 5.1, 384 Кбит/сек [Английский - оригинал]
Аудио 2: AC3 5.1, 448 Кбит/сек [Русский - дублированный]

Title: Jurassic World (2015) DVD5 PAL
Size: 4.36 Gb ( 4 572 096,00 KBytes ) - DVD-5
Enabled regions: 1, 2, 3, 4, 5, 6, 7, 8

VTS_01 :
Play Length: 01:59:16+{01:59:16}
Video: PAL 16:9 (720x576) VBR, Auto Letterboxed
Audio:
English (Dolby AC3, 6 ch)
Russian (Dolby AC3, 6 ch)
Subtitles:
English
Russian
Russian

* Menus Information *

VIDEO_TS Menu
Video:
PAL 16:9 (720x576) VBR
Auto Pan&Scan
English Language Unit :
Title Menu

VTS_01 Menu
Video:
PAL 16:9 (720x576) VBR
Auto Letterboxed
Audio:
Not specified (Dolby AC3, 2 ch)
English Language Unit :
Root Menu
Subpicture Menu
Audio Menu
Angle menu
Chapter (PTT) Menu
Общее
Полное имя : G:ВидеоJurassic World (2015) DVD5 PALVIDEO_TSVTS_01_3.VOB
Формат : MPEG-PS
Размер файла : 1024 Мбайт
Продолжительность : 24 м.
Режим общего битрейта : Переменный
Общий поток : 5848 Кбит/сек

Видео
Идентификатор : 224 (0xE0)
Формат : MPEG Video
Версия формата : Version 2
Профиль формата : Main@Main
Параметр BVOP формата : Да
Параметр матрицы формата : Выборочная
Параметр GOP формата : Variable
Структура изображения : Frame
Продолжительность : 24 м.
Вид битрейта : Переменный
Битрейт : 4900 Кбит/сек
Максимальный битрейт : 9800 Кбит/сек
Ширина : 720 пикселей
Высота : 576 пикселей
Соотношение сторон : 16:9
Частота кадров : 25,000 кадров/сек
Стандарт вещания : PAL
Цветовое пространство : YUV
Субдискретизация насыщенности : 4:2:0
Битовая глубина : 8 бит
Тип развёртки : Чересстрочная
Порядок развёртки : Верхнее поле первое
Метод сжатия : С потерями
Бит/(Пиксели*Кадры) : 0.473
Временной код первого кадра : 00:56:42:05
Оригинал временного кода : Group of pictures header
Размер потока : 858 Мбайт (84%)

Аудио #1
Идентификатор : 189 (0xBD)-128 (0x80)
Формат : AC-3
Формат/Информация : Audio Coding 3
Расширение режима : CM (complete main)
Параметр Endianness формата : Big
Режим смешивания : DVD-Video
Продолжительность : 24 м.
Вид битрейта : Постоянный
Битрейт : 384 Кбит/сек
Каналы : 6 каналов
Расположение каналов : Front: L C R, Side: L R, LFE
Частота : 48,0 КГц
Битовая глубина : 16 бит
Метод сжатия : С потерями
Задержка видео : -616 мс.
Размер потока : 67,2 Мбайт (7%)

Аудио #2
Идентификатор : 189 (0xBD)-129 (0x81)
Формат : AC-3
Формат/Информация : Audio Coding 3
Расширение режима : CM (complete main)
Параметр Endianness формата : Big
Режим смешивания : DVD-Video
Продолжительность : 24 м.
Вид битрейта : Постоянный
Битрейт : 448 Кбит/сек
Каналы : 6 каналов
Расположение каналов : Front: L C R, Side: L R, LFE
Частота : 48,0 КГц
Битовая глубина : 16 бит
Метод сжатия : С потерями
Задержка видео : -616 мс.
Размер потока : 78,4 Мбайт (8%)

Текст #1
Идентификатор : 189 (0xBD)-32 (0x20)
Формат : RLE
Формат/Информация : Run-length encoding
Режим смешивания : DVD-Video

Текст #2
Идентификатор : 189 (0xBD)-33 (0x21)
Формат : RLE
Формат/Информация : Run-length encoding
Режим смешивания : DVD-Video

Меню

Исходник: Мир Юрского периода / Jurassic World (2015) DVD9 | Custom
Удалены: доп. материалы, английская звуковая дорожка AC3 2.0 (в меню кнопки затёрты).
Команды диска переписаны заново, оставлен один VTS.
Видео сжато на 29,8%
Меню: статичное, недействующие кнопки затерты и закрыты.
Обработка и сжатие: DVD ReMake Pro + DVD Rebuilder + CCE SP2 [7 проходов] + Работа с меню (Adobe PhotoShop и MuxMan).




реклама партнёра


Вернуться к началу
 Профиль  
 
   Похожие торренты   Автор   Торрент   Размер 
В этой теме нет новых непрочитанных сообщений. Мир Юрского периода / Jurassic World (Колин Треворроу) [фантастика, боевик, триллер, приключения, 2015] WEB-DLRip, Dub [iTunes]

salma3

134 | 0

1.37 ГБ

В этой теме нет новых непрочитанных сообщений. Мир Юрского периода / Jurassic World (Колин Треворроу) [фантастика, боевик, триллер, приключения, 2015] WEB-DL 720p, Dub [iTunes]

salma3

319 | 11

3.85 ГБ

В этой теме нет новых непрочитанных сообщений. Мир Юрского периода / Jurassic World (Колин Треворроу) [фантастика, боевик, триллер, приключения, 2015] WEB-DLRip, Dub [iTunes]

Dracon

398 | 12

2.05 ГБ

В этой теме нет новых непрочитанных сообщений. Мир Юрского периода / Jurassic World (Колин Треворроу) [фантастика, боевик, триллер, приключения, 2015] HDRip, Dub [iTunes]

Dracon

5071 | 338

1.42 ГБ

В этой теме нет новых непрочитанных сообщений. Мир Юрского периода 2D, 3D / Jurassic World 2D, 3D (Колин Треворроу) [фантастика, боевик, триллер, приключения, 2015] Blu-Ray, Dub+Sub [3D-Video | Лицензия]

Dracon

210 | 37

40.18 ГБ

В этой теме нет новых непрочитанных сообщений. Мир Юрского периода / Jurassic World (Колин Треворроу) [фантастика, боевик, триллер, приключения, 2015] WEB-DL 1080p, Dub [iTunes]

Dracon

275 | 4

4.8 ГБ

В этой теме нет новых непрочитанных сообщений. Мир Юрского периода / Jurassic World (Колин Треворроу) [фантастика, боевик, триллер, приключения, 2015] BDRip 720p, Dub [iTunes]

Dracon

2542 | 301

5.8 ГБ


Начать новую тему Ответить на тему  [ 1 сообщение ] 




Для Мосгорсуда, Роскомнадзора и рекламодателей:: mosgorsud-torrent[собачка]yandex.ru