Торрент файл
скачать торрент магнет ссылка Добавлен: 17 окт 2015, 17:00
Размер: 4.37 ГБ
Сидеров: 291
Личеров: 58
Автор

СообщениеДобавлено: 17 окт 2015, 17:00 

Не в сети
Зам. Админа
Аватара пользователя
Дата регистрации:
02 дек 2010, 12:39
Спасибо: 12500 / 214
Сообщения: 28036
Год выпуска: 2015
Производство: США, Австралия, Канада / Warner Bros., New Line Cinema, Village Roadshow Pictures
Жанр: Боевик, триллер, драма

Режиссер: Брэд Пейтон
Продюсеры: Бо Флинн, Брюс Берман, Ричард Бренер
Актеры: Дуэйн Джонсон, Александра Даддарио, Карла Гуджино, Колтон Хэйнс, Йоан Гриффит, Пол Джаматти, Арчи Панджаби, Ванесса Росс, Морган Гриффин, Кайли Миноуг

Описание :
Рэй — пилот спасательного вертолета, который всю свою жизнь помогал другим людям. За все время работы он насмотрелся на множество жутких вещей и не раз оказывался в очень сложных ситуациях. Несмотря на все преграды он спешил на помощь, даже не предполагая, что самое страшное ждет его впереди. На Калифорнию обрушивается мощное землетрясение, в результате которого гибнут сотни людей и образовывается огромная трещины в земле. Во всеобщем хаосе Рэю предстоит отыскать свою дочь, но сделать это будет очень не просто. В надежде, что его ребенок все еще жив, он отправляется в смертельно опасное путешествие через весь штат...

Перевод: Дублированный
Субтитры: Английские, русские

Дата мировой премьеры: 21 мая 2015
Дата российской премьеры: 28 мая 2015, «Каро-Премьер»
Дата выхода DVD релиза: 8 октября 2015, «CP Дистрибуция»


Продолжительность: 01:49:49

Качество : DVD5
Видео: MPEG-2, 720x576@1024x576 (PAL 16:9), ~4700 Кбит/сек
Аудио 1: AC3 5.1, 384 Кбит/сек [Английский - оригинал]
Аудио 2: AC3 5.1, 448 Кбит/сек [Русский - дублированный]

Title: San Andreas (2015) DVD5 PAL
Size: 4.37 Gb ( 4 578 952,00 KBytes ) - DVD-5
Enabled regions: 1, 2, 3, 4, 5, 6, 7, 8

VTS_01 :
Play Length: 01:49:49+00:00:00+00:00:07+{00:00:07}
Video: PAL 16:9 (720x576) VBR, Auto Letterboxed
Audio:
English (Dolby AC3, 6 ch)
Russian (Dolby AC3, 6 ch)
Subtitles:
English
Russian
Russian

* Menus Information *

VIDEO_TS Menu
Video:
PAL 16:9 (720x576) VBR
Auto Pan&Scan
Language Unit :
Title Menu

VTS_01 Menu
Video:
PAL 16:9 (720x576) VBR
Auto Pan&Scan
Audio:
Not specified (Dolby AC3, 2 ch)
English Language Unit :
Root Menu
Общее
Полное имя : G:ВидеоSan Andreas (2015) DVD5 PALVIDEO_TSVTS_01_1.VOB
Формат : MPEG-PS
Размер файла : 1024 Мбайт
Продолжительность : 25 м.
Режим общего битрейта : Переменный
Общий поток : 5667 Кбит/сек

Видео
Идентификатор : 224 (0xE0)
Формат : MPEG Video
Версия формата : Version 2
Профиль формата : Main@Main
Параметр BVOP формата : Да
Параметр матрицы формата : Выборочная
Параметр GOP формата : M=3, N=12
Структура изображения : Frame
Продолжительность : 25 м.
Вид битрейта : Переменный
Битрейт : 4722 Кбит/сек
Максимальный битрейт : 7804 Кбит/сек
Ширина : 720 пикселей
Высота : 576 пикселей
Соотношение сторон : 16:9
Частота кадров : 25,000 кадров/сек
Стандарт вещания : PAL
Цветовое пространство : YUV
Субдискретизация насыщенности : 4:2:0
Битовая глубина : 8 бит
Тип развёртки : Чересстрочная
Порядок развёртки : Верхнее поле первое
Метод сжатия : С потерями
Бит/(Пиксели*Кадры) : 0.455
Временной код первого кадра : 00:00:00:00
Оригинал временного кода : Group of pictures header
GOP, открыто/закрыто : Открыто
GOP, открыто/закрыто на первом кадре : Закрыто
Размер потока : 853 Мбайт (83%)

Аудио #1
Идентификатор : 189 (0xBD)-128 (0x80)
Формат : AC-3
Формат/Информация : Audio Coding 3
Расширение режима : CM (complete main)
Параметр Endianness формата : Big
Режим смешивания : DVD-Video
Продолжительность : 25 м.
Вид битрейта : Постоянный
Битрейт : 384 Кбит/сек
Каналы : 6 каналов
Расположение каналов : Front: L C R, Side: L R, LFE
Частота : 48,0 КГц
Битовая глубина : 16 бит
Метод сжатия : С потерями
Размер потока : 69,4 Мбайт (7%)

Аудио #2
Идентификатор : 189 (0xBD)-129 (0x81)
Формат : AC-3
Формат/Информация : Audio Coding 3
Расширение режима : CM (complete main)
Параметр Endianness формата : Big
Режим смешивания : DVD-Video
Продолжительность : 25 м.
Вид битрейта : Постоянный
Битрейт : 448 Кбит/сек
Каналы : 6 каналов
Расположение каналов : Front: L C R, Side: L R, LFE
Частота : 48,0 КГц
Битовая глубина : 16 бит
Метод сжатия : С потерями
Размер потока : 80,9 Мбайт (8%)

Текст #1
Идентификатор : 189 (0xBD)-32 (0x20)
Формат : RLE
Формат/Информация : Run-length encoding
Режим смешивания : DVD-Video

Текст #2
Идентификатор : 189 (0xBD)-33 (0x21)
Формат : RLE
Формат/Информация : Run-length encoding
Режим смешивания : DVD-Video

Меню

Исходник: Разлом Сан-Андреас / San Andreas (2015) DVD9 | Custom
Удалены: доп. материалы (в меню кнопка затёрта).
Команды диска переписаны заново, оставлен один VTS.
Видео сжато на 22,5%
Меню: статичное, недействующие кнопки затерты и закрыты.
Обработка и сжатие: DVD ReMake Pro + DVD Rebuilder + CCE SP2 [7 проходов] + Работа с меню (Adobe PhotoShop и MuxMan).





реклама партнёра


Вернуться к началу
 Профиль  
 
   Похожие торренты   Автор   Торрент   Размер 
В этой теме нет новых непрочитанных сообщений. Разлом Сан-Андреас / San Andreas (Брэд Пейтон) [боевик, триллер, драма, 2015] HDRip, Dub [Лицензия]

Dracon

472 | 17

1.46 ГБ

В этой теме нет новых непрочитанных сообщений. Разлом Сан-Андреас / San Andreas (Брэд Пейтон) [боевик, триллер, драма, 2015] HDRip, Dub [лицензия]

Dracon

101 | 2

2.18 ГБ

В этой теме нет новых непрочитанных сообщений. Разлом Сан-Андреас / San Andreas (Брэд Пейтон) [боевик, триллер, драма, 2015] HDRip-AVC, Dub+Sub [Лицензия]

Dracon

1616 | 45

2.76 ГБ

В этой теме нет новых непрочитанных сообщений. Разлом Сан-Андреас 2D, 3D / San Andreas 2D, 3D (Брэд Пейтон) [боевик, триллер, драма, 2015] Blu-Ray, Dub+Sub [3D-Video | Лицензия]

Dracon

185 | 27

33.88 ГБ

В этой теме нет новых непрочитанных сообщений. Разлом Сан-Андреас / San Andreas (Брэд Пейтон) [боевик, триллер, драма, 2015] BDRip 720p, Dub+Sub [Лицензия]

Dracon

33 | 2

8.24 ГБ

В этой теме нет новых непрочитанных сообщений. Разлом Сан-Андреас / San Andreas (Брэд Пейтон) [боевик, триллер, драма, 2015] BDRip 1080p, Dub+Sub [3D-Video | Лицензия]

Dracon

64 | 4

8.01 ГБ

В этой теме нет новых непрочитанных сообщений. Разлом Сан-Андреас / San Andreas (Брэд Пейтон) [боевик, триллер, драма, 2015] WEB-DL 1080p, dub [Чистый звук]

Dracon

1001 | 8

4.08 ГБ


Начать новую тему Ответить на тему  [ 1 сообщение ] 




Для Мосгорсуда, Роскомнадзора и рекламодателей:: mosgorsud-torrent[собачка]yandex.ru