Торрент файл
скачать торрент магнет ссылка Добавлен: 08 окт 2015, 16:35
Размер: 4.37 ГБ
Сидеров: 323
Личеров: 49
Автор

СообщениеДобавлено: 08 окт 2015, 16:35 

Не в сети
Зам. Админа
Аватара пользователя
Дата регистрации:
02 дек 2010, 12:39
Спасибо: 12461 / 214
Сообщения: 27968
Год выпуска: 2015
Производство: США / Marvel Studios Inc.
Жанр: фантастика, боевик, приключения

Режиссер: Джосс Уидон
Продюсеры: Кевин Файги, Виктория Алонсо, Митчелл Белл
Актеры: Роберт Дауни мл., Крис Хемсворт, Крис Эванс, Скарлетт Йоханссон, Марк Руффало, Джереми Реннер, Аарон Тейлор-Джонсон, Элизабет Олсен, Джеймс Спэйдер, Сэмюэл Л. Джексон

Описание :
Человечество на грани уничтожения. На этот раз людям угрожает Альтрон — искусственный интеллект, ранее созданный для того, чтобы защищать Землю от любых угроз. Однако, главной угрозой он посчитал человечество. Международная организация Щ. И. Т. распалась, и теперь мир не способен справиться с таким мощным врагом, потому люди вновь обращаются за помощью к Величайшим Героям Земли — Мстителям. Однако Альтрон слишком силен, и есть большая вероятность, что даже им не удастся остановить начало надвигающейся Эры Альтрона, где нет места для людей…

Перевод: Дублированный
Субтитры: Английские, русские

Дата мировой премьеры: 13 апреля 2015
Дата российской премьеры: 23 апреля 2015, «WDSSPR»
Дата выхода DVD релиза: 2 октября 2015, «Уолт Дисней Компани СНГ»


Продолжительность: 02:21:10
Качество видео: DVD5
Видео: MPEG-2, 720x480@853x480 (NTSC 16:9), ~3700 Кбит/сек
Аудио: AC3 5.1, 448 Кбит/сек [Русский - дублированный]

Title: Avengers. Age of Ultron (2015) DVD5 NTSC
Size: 4.37 Gb ( 4 582 334,00 KBytes ) - DVD-5
Enabled regions: 1, 2, 3, 4, 5, 6, 7, 8

VTS_01 :
Play Length: 00:00:00
Video: NTSC 16:9 (720x480) VBR, Auto Letterboxed

VTS_02 :
Play Length: 02:21:10
Video: NTSC 16:9 (720x480) VBR, Auto Letterboxed
Audio:
Russian (Dolby AC3, 6 ch)
Subtitles:
English
Russian
Russian

* Menus Information *

VIDEO_TS Menu
Video:
NTSC 16:9 (720x480) VBR
Auto Pan&Scan
English Language Unit :
Title Menu

VTS_01 Menu
Video:
NTSC 16:9 (720x480) VBR
Auto Pan&Scan
Audio:
Not specified (Dolby AC3, 6 ch)
English Language Unit :
Root Menu
Angle menu

VTS_02 Menu
Video:
NTSC 4:3 (720x480) VBR
Auto Pan&Scan, Auto Letterboxed
English Language Unit :
Root Menu
Angle menu
Общее
Полное имя : G:ВидеоAvengers. Age of Ultron (2015) DVD5 NTSCVIDEO_TSVTS_02_1.VOB
Формат : MPEG-PS
Размер файла : 1024 Мбайт
Продолжительность : 33 м.
Режим общего битрейта : Переменный
Общий поток : 4259 Кбит/сек

Видео
Идентификатор : 224 (0xE0)
Формат : MPEG Video
Версия формата : Version 2
Профиль формата : Main@Main
Параметр BVOP формата : Да
Параметр матрицы формата : Выборочная
Параметр GOP формата : Variable
Продолжительность : 33 м.
Вид битрейта : Переменный
Битрейт : 3726 Кбит/сек
Максимальный битрейт : 9800 Кбит/сек
Ширина : 720 пикселей
Высота : 480 пикселей
Соотношение сторон : 16:9
Частота кадров : 23,976 кадра/сек
Стандарт вещания : Component
Цветовое пространство : YUV
Субдискретизация насыщенности : 4:2:0
Битовая глубина : 8 бит
Тип развёртки : Прогрессивная
Порядок развёртки : 2:3 Pulldown
Метод сжатия : С потерями
Бит/(Пиксели*Кадры) : 0.450
Временной код первого кадра : 00:00:00;00
Оригинал временного кода : Group of pictures header
Размер потока : 896 Мбайт (87%)
Основные цвета : BT.601 NTSC
Характеристики трансфера : BT.601
Коэффициенты матрицы : BT.601

Аудио
Идентификатор : 189 (0xBD)-129 (0x81)
Формат : AC-3
Формат/Информация : Audio Coding 3
Расширение режима : CM (complete main)
Параметр Endianness формата : Big
Режим смешивания : DVD-Video
Продолжительность : 33 м.
Вид битрейта : Постоянный
Битрейт : 448 Кбит/сек
Каналы : 6 каналов
Расположение каналов : Front: L C R, Side: L R, LFE
Частота : 48,0 КГц
Битовая глубина : 16 бит
Метод сжатия : С потерями
Размер потока : 108 Мбайт (11%)

Текст #1
Идентификатор : 189 (0xBD)-32 (0x20)
Формат : RLE
Формат/Информация : Run-length encoding
Режим смешивания : DVD-Video
Продолжительность : 33 м.

Текст #2
Идентификатор : 189 (0xBD)-33 (0x21)
Формат : RLE
Формат/Информация : Run-length encoding
Режим смешивания : DVD-Video

Меню






реклама партнёра


Вернуться к началу
 Профиль  
 
   Похожие торренты   Автор   Торрент   Размер 
В этой теме нет новых непрочитанных сообщений. Мстители: Эра Альтрона / Avengers: Age of Ultron (Джосс Уидон) [фантастика, боевик, триллер, приключения, 2015] Blu-Ray CEE, Dub+Sub [Лицензия]

Dracon

200 | 66

39.22 ГБ

В этой теме нет новых непрочитанных сообщений. Мстители: Эра Альтрона / Avengers: Age of Ultron (Джосс Уидон) [фантастика, боевик, триллер, приключения, 2015] BDRip-AVC, Dub+Sub [Лицензия]

Dracon

27 | 0

4.04 ГБ

В этой теме нет новых непрочитанных сообщений. Мстители: Эра Альтрона / Avengers: Age of Ultron (Джосс Уидон) [фантастика, боевик, триллер, приключения, 2015] BDRip 720p, Dub+Sub [Лицензия]

Dracon

1603 | 196

9.73 ГБ

В этой теме нет новых непрочитанных сообщений. Мстители: Эра Альтрона / Avengers: Age of Ultron (Джосс Уидон) [фантастика, боевик, триллер, приключения, 2015] BDRip 1080p, Dub+Sub [Лицензия]

Dracon

2406 | 309

15.43 ГБ

В этой теме нет новых непрочитанных сообщений. Мстители: Эра Альтрона / Avengers: Age of Ultron (Джосс Уидон) [фантастика, боевик, триллер, приключения, 2015] HDRip, Dub [iTunes]

Dracon

1013 | 19

1.47 ГБ

В этой теме нет новых непрочитанных сообщений. Мстители: Эра Альтрона / Avengers: Age of Ultron (Джосс Уидон) [2015, Фантастика, боевик, триллер, приключения, BD-Remux 1080p] [DD5.1] [Dub Rus, Ukr]+[Eng]+[Sub Rus, Eng]

Враг Нароода

2 | 0

25.55 ГБ

В этой теме нет новых непрочитанных сообщений. Мстители: Эра Альтрона / Avengers: Age of Ultron (Джосс Уидон) [фантастика, боевик, триллер, приключения, 2015] HDRip, Dub [iTunes]

Dracon

164 | 5

2.05 ГБ


Начать новую тему Ответить на тему  [ 1 сообщение ] 




Для Мосгорсуда, Роскомнадзора и рекламодателей:: mosgorsud-torrent[собачка]yandex.ru