Торрент файл
скачать торрент магнет ссылка Добавлен: 12 авг 2015, 16:42
Размер: 4.36 ГБ
Сидеров: 433
Личеров: 42
Автор

СообщениеДобавлено: 12 авг 2015, 16:42 

Не в сети
Зам. Админа
Аватара пользователя
Дата регистрации:
02 дек 2010, 12:39
Спасибо: 12458 / 214
Сообщения: 27968
Год выпуска: 2015
Производство: США / Universal Pictures, Original Film, Media Rights Capital, China Film Co., One Race Films
Жанр: Боевик, триллер, криминал

Режиссер: Джеймс Ван
Продюсеры: Вин Дизель, Майкл Фоттрел, Нил Х. Мориц
Актеры: Вин Дизель, Пол Уокер, Джейсон Стэйтем, Мишель Родригес, Дуэйн Джонсон, Тайриз Гибсон, Лудакрис, Натали Эммануэль, Джордана Брюстер, Курт Рассел

Описание :
Они покорили Токио и Рио, Лос-Анджелес и Лондон. Но мир больше не играет по их правилам. Зной арабских пустынь, неприлично высокие небоскребы, миллионы долларов на колесах и очень, очень знаменитый злодей. Скорость не знает границ.

Перевод: Дублированный
Субтитры: Английские (Full), русские (Full - BD, А. Матвеев), русские (Forced)

Дата мировой премьеры: 16 марта 2015
Дата российской премьеры: 9 апреля 2015, «UPI»

Продолжительность: 02:11:43
Качество видео: DVD5
Видео: MPEG-2, 720x576@1024x576 (PAL 16:9), ~4500 Кбит/сек
Аудио 1: AC3 5.1, 384 Кбит/сек [Английский - оригинал]
Аудио 2: AC3 5.1, 448 Кбит/сек [Русский - дублированный]

Title: Furious Seven (2015) [Theatrical cut] DVD5 PAL
Size: 4.36 Gb ( 4 574 052,00 KBytes ) - DVD-5
Enabled regions: 1, 2, 3, 4, 5, 6, 7, 8

VTS_01 :
Play Length: 02:11:43+{02:11:43}
Video: PAL 16:9 (720x576) VBR, Auto Letterboxed
Audio:
English (Dolby AC3, 6 ch)
Russian (Dolby AC3, 6 ch)
Subtitles:
English
Russian
Russian
Russian

* Menus Information *

VIDEO_TS Menu
Video:
PAL 16:9 (720x576) VBR
Auto Pan&Scan
English Language Unit :
Title Menu

VTS_01 Menu
Video:
PAL 16:9 (720x576) VBR
Auto Letterboxed
Audio:
Not specified (Dolby AC3, 2 ch)
English Language Unit :
Root Menu
Subpicture Menu
Audio Menu
Angle menu
Chapter (PTT) Menu
Общее
Полное имя : G:ВидеоFurious Seven (2015) [Theatrical cut] DVD5 PALVIDEO_TSVTS_01_2.VOB
Формат : MPEG-PS
Размер файла : 1024 Мбайт
Продолжительность : 26 м.
Режим общего битрейта : Переменный
Общий поток : 5460 Кбит/сек

Видео
Идентификатор : 224 (0xE0)
Формат : MPEG Video
Версия формата : Version 2
Профиль формата : Main@Main
Параметр BVOP формата : Да
Параметр матрицы формата : Выборочная
Параметр GOP формата : Variable
Структура изображения : Frame
Продолжительность : 26 м.
Вид битрейта : Переменный
Битрейт : 4519 Кбит/сек
Максимальный битрейт : 7203 Кбит/сек
Ширина : 720 пикселей
Высота : 576 пикселей
Соотношение сторон : 16:9
Частота кадров : 25,000 кадров/сек
Стандарт вещания : PAL
Цветовое пространство : YUV
Субдискретизация насыщенности : 4:2:0
Битовая глубина : 8 бит
Тип развёртки : Чересстрочная
Порядок развёртки : Верхнее поле первое
Метод сжатия : С потерями
Бит/(Пиксели*Кадры) : 0.436
Временной код первого кадра : 00:31:29:23
Оригинал временного кода : Group of pictures header
GOP, открыто/закрыто : Открыто
Размер потока : 847 Мбайт (83%)

Аудио #1
Идентификатор : 189 (0xBD)-128 (0x80)
Формат : AC-3
Формат/Информация : Audio Coding 3
Расширение режима : CM (complete main)
Параметр Endianness формата : Big
Режим смешивания : DVD-Video
Продолжительность : 26 м.
Вид битрейта : Постоянный
Битрейт : 384 Кбит/сек
Каналы : 6 каналов
Расположение каналов : Front: L C R, Side: L R, LFE
Частота : 48,0 КГц
Битовая глубина : 16 бит
Метод сжатия : С потерями
Задержка видео : -624 мс.
Размер потока : 72,0 Мбайт (7%)

Аудио #2
Идентификатор : 189 (0xBD)-129 (0x81)
Формат : AC-3
Формат/Информация : Audio Coding 3
Расширение режима : CM (complete main)
Параметр Endianness формата : Big
Режим смешивания : DVD-Video
Продолжительность : 26 м.
Вид битрейта : Постоянный
Битрейт : 448 Кбит/сек
Каналы : 6 каналов
Расположение каналов : Front: L C R, Side: L R, LFE
Частота : 48,0 КГц
Битовая глубина : 16 бит
Метод сжатия : С потерями
Задержка видео : -624 мс.
Размер потока : 84,0 Мбайт (8%)

Текст #1
Идентификатор : 189 (0xBD)-32 (0x20)
Формат : RLE
Формат/Информация : Run-length encoding
Режим смешивания : DVD-Video
Задержка видео : 320 мс.

Текст #2
Идентификатор : 189 (0xBD)-33 (0x21)
Формат : RLE
Формат/Информация : Run-length encoding
Режим смешивания : DVD-Video
Задержка видео : 160 мс.

Текст #3
Идентификатор : 189 (0xBD)-34 (0x22)
Формат : RLE
Формат/Информация : Run-length encoding
Режим смешивания : DVD-Video
Задержка видео : 120 мс.

Меню






реклама партнёра


Вернуться к началу
 Профиль  
 
   Похожие торренты   Автор   Торрент   Размер 
В этой теме нет новых непрочитанных сообщений. Форсаж 7 /  Furious 7 (Джеймс Ван) [боевик, триллер, криминал, 2015] BDRip-AVC, Dub+Sub [Theatrical cut | iTunes]

Dracon

213 | 3

3.05 ГБ

В этой теме нет новых непрочитанных сообщений. Форсаж 7 / Furious 7 (Джеймс Ван) [боевик, триллер, криминал, 2015] HDTVRip, avo

Dracon

10 | 3

2.15 ГБ

В этой теме нет новых непрочитанных сообщений. Форсаж 7 / Furious 7 (Джеймс Ван) [боевик, триллер, криминал, 2015] BDRip, Dub [iTunes]

Dracon

269 | 14

1.38 ГБ

В этой теме нет новых непрочитанных сообщений. Форсаж 7 / Furious 7 (Джеймс Ван) [боевик, триллер, криминал, 2015] WEB-DL 1080p, Dub [iTunes]

Dracon

2 | 0

4.7 ГБ

В этой теме нет новых непрочитанных сообщений. Форсаж 7 / Furious 7 (Джеймс Ван) [боевик, триллер, криминал, 2015] WEB-DLRip, dub [ iTunes]

slawa4155

635 | 14

1.37 ГБ

В этой теме нет новых непрочитанных сообщений. Форсаж 7 / Furious 7 (Джеймс Ван) [боевик, триллер, криминал, 2015] BDRip, Dub [iTunes]

Dracon

18 | 1

2.06 ГБ

В этой теме нет новых непрочитанных сообщений. Форсаж 7 / Furious 7 (Джеймс Ван) [боевик, триллер, криминал, 2015] Blu-Ray Remux 1080p, Dub+Sub [iTunes]

Dracon

10 | 5

24.23 ГБ


Начать новую тему Ответить на тему  [ 1 сообщение ] 




Для Мосгорсуда, Роскомнадзора и рекламодателей:: mosgorsud-torrent[собачка]yandex.ru