Торрент файл
скачать торрент магнет ссылка Добавлен: 01 авг 2015, 10:04
Размер: 4.11 ГБ
Сидеров: 123
Личеров: 19
Автор

СообщениеДобавлено: 01 авг 2015, 10:04 

Не в сети
Зам. Админа
Аватара пользователя
Дата регистрации:
02 дек 2010, 12:39
Спасибо: 12458 / 214
Сообщения: 27968
Год выхода: 2015
Жанр: Вестерн
Режиссер: Джон Маклин
В ролях: Майкл Фассбендер, Бен Мендельсон, Коди Смит-МакФи, Рори МакКанн, Брук Уильямс, Карен Писториус, Алекс МакКуин, Энди МакФи, Джеффри Томас, Калани Кейпо

О фильме: Фильм рассказывает историю 17-летнего паренька по имени Джей Кавендиш, который путешествует по всей американской границе в поисках девушки, которую он любит. В опасном приключении его сопровождает таинственный путешественник Сайлус.



Продолжительность: 01:23:55
Перевод: Авторский (Чадов)

Кодек: MPEG-2
Качество: DVD-9
Видео: MPEG2, NTSC 16:9 (720x480@853x480) VBR, 23,976 кадра/сек
Звук: Русский DD 2.0 (256 Kbps), Английский DD 5.1 (348 Kbps)
Title: Локальный диск
Size: 4.11 Gb ( 4 310 732 KBytes ) - DVD-5
Enabled regions: 1, 2, 3, 4, 5, 6, 7, 8

VTS_01 :
Play Length: 01:23:55
Video: NTSC 16:9 (720x480) VBR, Auto Pan&Scan
Audio:
Russian (Dolby AC3, 2 ch)
English (Dolby AC3, 6 ch)

Menu Video:
NTSC 4:3 (704x480) VBR
Menu English Language Unit :
Root Menu

Общее
Полное имя : D:1АААМедленный ЗападVIDEO_TSVTS_01_1.VOB
Формат : MPEG-PS
Размер файла : 1000 Мбайт
Продолжительность : 21 м.
Режим общего битрейта : Переменный
Общий поток : 6442 Кбит/сек

Видео
Идентификатор : 224 (0xE0)
Формат : MPEG Video
Версия формата : Version 2
Профиль формата : Main@Main
Параметр BVOP формата : Да
Параметр матрицы формата : По умолчанию
Параметр GOP формата : M=3, N=12
Продолжительность : 21 м.
Вид битрейта : Переменный
Битрейт : 5674 Кбит/сек
Максимальный битрейт : 8464 Кбит/сек
Ширина : 720 пикселей
Высота : 480 пикселей
Соотношение сторон : 16:9
Частота кадров : 23,976 кадра/сек
Стандарт вещания : NTSC
Цветовое пространство : YUV
Субдискретизация насыщенности : 4:2:0
Битовая глубина : 8 бит
Тип развёртки : Прогрессивная
Порядок развёртки : 2:3 Pulldown
Метод сжатия : С потерями
Бит/(Пиксели*Кадры) : 0.685
TimeCode_FirstFrame : 00:00:00;00
TimeCode_Source : Group of pictures header
Размер потока : 881 Мбайт (88%)

Аудио #1
Идентификатор : 189 (0xBD)-128 (0x80)
Формат : AC-3
Формат/Информация : Audio Coding 3
Расширение режима : CM (complete main)
Параметр Endianness формата : Big
Режим смешивания : DVD-Video
Продолжительность : 21 м.
Вид битрейта : Постоянный
Битрейт : 256 Кбит/сек
Каналы : 2 канала
Расположение каналов : Front: L R
Частота : 48,0 КГц
Битовая глубина : 16 бит
Метод сжатия : С потерями
Размер потока : 39,7 Мбайт (4%)

Аудио #2
Идентификатор : 189 (0xBD)-129 (0x81)
Формат : AC-3
Формат/Информация : Audio Coding 3
Расширение режима : CM (complete main)
Параметр Endianness формата : Big
Режим смешивания : DVD-Video
Продолжительность : 21 м.
Вид битрейта : Постоянный
Битрейт : 384 Кбит/сек
Каналы : 6 каналов
Расположение каналов : Front: L C R, Side: L R, LFE
Частота : 48,0 КГц
Битовая глубина : 16 бит
Метод сжатия : С потерями
Размер потока : 59,6 Мбайт (6%)

Меню





реклама партнёра


Вернуться к началу
 Профиль  
 
   Похожие торренты   Автор   Торрент   Размер 
В этой теме нет новых непрочитанных сообщений. Медленный Запад / Slow West (Джон Маклин) [боевик, триллер, вестерн, 2015] HDRip [ColdFilm]

Dracon

0 | 0

1.37 ГБ

В этой теме нет новых непрочитанных сообщений. Медленный Запад / Slow West (Джон Маклин) [боевик, триллер, вестерн, 2015] BDRip 1080p, Avo+dvo+Sub

Dracon

35 | 7

7.87 ГБ

В этой теме нет новых непрочитанных сообщений. Строго на запад / Медленный Запад / Slow West [Боевик, триллер, вестерн, 2015] HDRip, Dub [iTunes]

Dracon

197 | 4

1.37 ГБ

В этой теме нет новых непрочитанных сообщений. Строго на запад / Медленный Запад / Slow West [Боевик, триллер, вестерн, 2015] BDRip 720p, Dub+Avo+Sub [Лицензия]

Dracon

237 | 52

6.88 ГБ

В этой теме нет новых непрочитанных сообщений. Мой Дикий Запад / Il mio West [Комедия, вестерн, 1998] DVDRip, Mvo

salma3

7 | 4

1.37 ГБ

В этой теме нет новых непрочитанных сообщений. Бадди едет на запад / Buddy goes west [Вестерн, комедия, 1981] DVDRip, Avo

salma3

12 | 5

1.38 ГБ

В этой теме нет новых непрочитанных сообщений. Миллион способов потерять голову / A Million Ways to Die in the West [комедия, вестерн, 2014] DVD5, Dub+Sub [Лицензия]

Dracon

31 | 5

4.37 ГБ


Начать новую тему Ответить на тему  [ 1 сообщение ] 




Для Мосгорсуда, Роскомнадзора и рекламодателей:: mosgorsud-torrent[собачка]yandex.ru