Торрент файл
скачать торрент магнет ссылка Добавлен: 06 июн 2015, 15:36
Размер: 3.94 ГБ
Сидеров: 71
Личеров: 14
Автор

СообщениеДобавлено: 06 июн 2015, 15:36 

Не в сети
Зам. Админа
Аватара пользователя
Дата регистрации:
02 дек 2010, 12:39
Спасибо: 12461 / 214
Сообщения: 27968
Год выхода: 2014
Жанр: ужасы, триллер, драма
Режиссер: Том Харпер / Tom Harper
В ролях: Фиби Фокс, Меррин Пирс, Мэри Роско, Хелен МакКрори, Амелия Крауч, Амелия Пиджон, Каспер Олпресс, Пип Пирс, Лейла де Меса, Джуд Райт

О фильме:
Во время Второй мировой войны группу школьников и их юную учительницу Еву эвакуируют из подвергшегося бомбардировкам Лондона в заброшенное поместье, расположенное в деревенской глуши. Вскоре в деревне начинают происходить странные события. Ева с помощью начальника местного гарнизона Гарри обнаруживает, что приезд детей пробудил темные силы, внушающие больший ужас, чем вражеские бомбардировки. Теперь Ева должна противостоять силам зла, спасти детей и пережить встречу с Женщиной в черном.


Страна: Великобритания, США, Канада
Студия: Alliance Films, Da Vinci Media Ventures, Exclusive Media Group, Hammer Film Productions Limited, Hammer Films, Talisman Productions, Vertigo Entertainment
Продолжительность: 01:34:04
Перевод: Профессиональный (дублированный) [Лицензия]

Кодек: MPEG2
Качество: DVD5 R5
Видео: PAL 16:9 (720x576(0.523)) MPEG Video, 25,000 кадр/сек, 5418 Кбит/сек
Звук: Russian (Dolby AC3, 6 ch) 448 Кбит/сек, 48,0 КГц
Субтитры: нет

Title: Рабочий
Size: 3.94 Gb ( 4 135 008 KBytes ) - DVD-5
Enabled regions: 1, 2, 3, 4, 5, 6, 7, 8

VTS_01 :
Play Length: 00:00:19
Video: PAL 16:9 (720x576) VBR, Auto Pan&Scan, Auto Letterboxed
Audio:
Not specified (Dolby AC3, 2 ch)

VTS_02 :
Play Length: 01:34:04
Video: PAL 16:9 (720x576) VBR, Auto Pan&Scan, Auto Letterboxed
Audio:
Not specified (Dolby AC3, 6 ch)

Menu Video:
PAL 16:9 (720x576) VBR
Auto Pan&Scan, Auto Letterboxed
Menu Subtitles:
Not specified
Menu English Language Unit :
Root Menu


Общее
Полное имя : F:Новинки 2015Zhenshhina.v.chernom.2.2014.DVD5VIDEO_TSVTS_02_2.VOB
Формат : MPEG-PS
Размер файла : 1024 Мбайт
Продолжительность : 23 м.
Режим общего битрейта : Переменный
Общий поток : 5986 Кбит/сек

Видео
Идентификатор : 224 (0xE0)
Формат : MPEG Video
Версия формата : Version 2
Профиль формата : Main@Main
Параметр BVOP формата : Да
Параметр матрицы формата : Выборочная
Параметр GOP формата : M=3, N=15
Структура изображения : Frame
Продолжительность : 23 м.
Вид битрейта : Переменный
Битрейт : 5418 Кбит/сек
Максимальный битрейт : 9000 Кбит/сек
Ширина : 720 пикселей
Высота : 576 пикселей
Соотношение сторон : 16:9
Частота кадров : 25,000 кадров/сек
Стандарт вещания : PAL
Цветовое пространство : YUV
Субдискретизация насыщенности : 4:2:0
Битовая глубина : 8 бит
Тип развёртки : Чересстрочная
Порядок развёртки : Верхнее поле первое
Метод сжатия : С потерями
Бит/(Пиксели*Кадры) : 0.523
Временной код первого кадра : 00:25:27:18
Оригинал временного кода : Group of pictures header
GOP, открыто/закрыто : Закрыто
Размер потока : 927 Мбайт (91%)

Аудио
Идентификатор : 189 (0xBD)-128 (0x80)
Формат : AC-3
Формат/Информация : Audio Coding 3
Расширение режима : CM (complete main)
Параметр Endianness формата : Big
Режим смешивания : DVD-Video
Продолжительность : 23 м.
Вид битрейта : Постоянный
Битрейт : 448 Кбит/сек
Каналы : 6 каналов
Расположение каналов : Front: L C R, Side: L R, LFE
Частота : 48,0 КГц
Метод сжатия : С потерями
Задержка видео : -616 мс.
Размер потока : 76,6 Мбайт (7%)






реклама партнёра


Вернуться к началу
 Профиль  
 
   Похожие торренты   Автор   Торрент   Размер 
В этой теме нет новых непрочитанных сообщений. Женщина в черном 2: Ангел смерти / The Woman in Black 2: Angel of Death (Том Харпер) [ужасы, триллер, драма, 2014] HDRip, dub [Чистый звук]

Dracon

5116 | 172

1.36 ГБ

В этой теме нет новых непрочитанных сообщений. Женщина в черном 2: Ангел смерти / The Woman in Black 2: Angel of Death (Том Харпер) [ужасы, триллер, драма, 2014] BDRip 720p, dub [Чистый звук]

Dracon

1749 | 62

3.91 ГБ

В этой теме нет новых непрочитанных сообщений. Черный ангел / Kuro no tenshi Vol. 1 / Black Angel [Боевик, триллер, драма, криминал, 1997] BDRip 720p, Avo

salma3

39 | 6

3.63 ГБ

В этой теме нет новых непрочитанных сообщений. Черный ангел / Kuro no tenshi Vol. 1 / Black Angel [Боевик, триллер, драма, криминал, 1997] Blu-ray Remux 1080p, Avo+Sub

salma3

11 | 7

21.33 ГБ

В этой теме нет новых непрочитанных сообщений. Другая женщина / The Other Woman [мелодрама, комедия, 2014] BDRip, Dub [лицензия]

salma3

164 | 3

1.46 ГБ

В этой теме нет новых непрочитанных сообщений. Другая женщина / The Other Woman [мелодрама, комедия, 2014] BDRip 720p, Dub+Sub [Лицензия]

salma3

537 | 17

3.2 ГБ

В этой теме нет новых непрочитанных сообщений. Женщина-ящерица / Tuk kae phii / Lizard Woman [ужасы, триллер, 2004] DVDRip, Dvo

salma3

8 | 3

1.46 ГБ


Начать новую тему Ответить на тему  [ 1 сообщение ] 




Для Мосгорсуда, Роскомнадзора и рекламодателей:: mosgorsud-torrent[собачка]yandex.ru