Торрент файл
скачать торрент магнет ссылка Добавлен: 06 июн 2015, 11:01
Размер: 3.51 ГБ
Сидеров: 73
Личеров: 3
Автор

СообщениеДобавлено: 06 июн 2015, 11:01 

Не в сети
Зам. Админа
Аватара пользователя
Дата регистрации:
02 дек 2010, 12:39
Спасибо: 12461 / 214
Сообщения: 27968
Год выхода: 2015
Жанр: драма, боевик, приключения
Режиссер: Казуаки Кирия
В ролях: Клайв Оуэн, Морган Фриман, Клифф Кёртис, Аксель Хенни, Цуёси Ихара, Шоре Агдашлу, Пейман Моаади, Ан Сон Ги, Пак Си Ен, Дэниэл Адегбойега

О фильме:
Фильм рассказывает о падшем воине, который восстает против коррумпированного правителя-садиста, чтобы отомстить за своего обесчещенного господина.


Страна: Чехия, Южная Корея
Студия: Czech Anglo Productions, Luka Productions
Продолжительность: 110 мин. / 01:50
Перевод: полное дублирование
Оригинальная дорожка: отсутствует


Кодек: MPEG2
Качество: DVD5 "Лизард"
Видео: PAL 16:9 (720x576@1024x576) VBR 3789 Kbps, 25.000 fps
Аудио: Dolby AC3, 6 ch, 48.0 KHz, 448 Kbps
Субтитры: отсутствуют

Общее
Полное имя : D:Poslednie.rycari.2015.DVD5VIDEO_TSVTS_04_1.VOB
Формат : MPEG-PS
Размер файла : 1024 Мбайт
Продолжительность : 33 м.
Режим общего битрейта : Переменный
Общий поток : 4323 Кбит/сек

Видео
Идентификатор : 224 (0xE0)
Формат : MPEG Video
Версия формата : Version 2
Профиль формата : Main@Main
Параметр BVOP формата : Да
Параметр матрицы формата : Выборочная
Параметр GOP формата : Variable
Структура изображения : Frame
Продолжительность : 33 м.
Вид битрейта : Переменный
Битрейт : 3789 Кбит/сек
Максимальный битрейт : 8000 Кбит/сек
Ширина : 720 пикселей
Высота : 576 пикселей
Соотношение сторон : 16:9
Частота кадров : 25,000 кадров/сек
Стандарт вещания : PAL
Цветовое пространство : YUV
Субдискретизация насыщенности : 4:2:0
Битовая глубина : 8 бит
Тип развёртки : Чересстрочная
Порядок развёртки : Верхнее поле первое
Метод сжатия : С потерями
Бит/(Пиксели*Кадры) : 0.365
Временной код первого кадра : 00:00:00:00
Оригинал временного кода : Group of pictures header
GOP, открыто/закрыто : Открыто
GOP, открыто/закрыто на первом кадре : Закрыто
Размер потока : 897 Мбайт (88%)

Аудио
Идентификатор : 189 (0xBD)-128 (0x80)
Формат : AC-3
Формат/Информация : Audio Coding 3
Расширение режима : CM (complete main)
Параметр Endianness формата : Big
Режим смешивания : DVD-Video
Продолжительность : 33 м.
Вид битрейта : Постоянный
Битрейт : 448 Кбит/сек
Каналы : 6 каналов
Расположение каналов : Front: L C R, Side: L R, LFE
Частота : 48,0 КГц
Метод сжатия : С потерями
Размер потока : 106 Мбайт (10%)

Меню





реклама партнёра


Вернуться к началу
 Профиль  
 
   Похожие торренты   Автор   Торрент   Размер 
В этой теме нет новых непрочитанных сообщений. Последние рыцари / Last Knights (Казуаки Кирия) [боевик, приключения, 2015] HDRip, Dub [Лицензия]

Dracon

1 | 0

1.46 ГБ

В этой теме нет новых непрочитанных сообщений. Последние рыцари / Last Knights (Казуаки Кирия) [боевик, приключения, 2015] Blu-Ray 1080i, Dub [Лицензия]

Dracon

116 | 13

19.47 ГБ

В этой теме нет новых непрочитанных сообщений. Последние рыцари / Last Knights (Казуаки Кирия) [боевик, приключения, 2015] BDRip 1080p, Dub [Лицензия]

Dracon

729 | 516

9.32 ГБ

В этой теме нет новых непрочитанных сообщений. Последние рыцари / Last Knights (Казуаки Кирия) [боевик, приключения, 2015] BDRip 720p, Dub [Лицензия]

Dracon

265 | 16

5.16 ГБ

В этой теме нет новых непрочитанных сообщений. Последние рыцари / Last Knights (Казуаки Кирия) [боевик, приключения, 2015] WEB-DLRip, dub [Чистый звук]

Dracon

5579 | 165

1.46 ГБ

В этой теме нет новых непрочитанных сообщений. Последние рыцари / Last Knights (Казуаки Кирия) [боевик, приключения, 2015] WEB-DLRip, dub [Чистый звук]

Dracon

1796 | 54

2.05 ГБ

В этой теме нет новых непрочитанных сообщений. Последние рыцари / Last Knights (Казуаки Кирия) [боевик, приключения, 2015] HDRip, dub [Чистый звук]

Dracon

4519 | 218

1.46 ГБ


Начать новую тему Ответить на тему  [ 1 сообщение ] 




Для Мосгорсуда, Роскомнадзора и рекламодателей:: mosgorsud-torrent[собачка]yandex.ru