Торрент файл
скачать торрент магнет ссылка Добавлен: 26 май 2015, 01:16
Размер: 5.48 ГБ
Сидеров: 272
Личеров: 60
Автор

СообщениеДобавлено: 26 май 2015, 01:16 

Не в сети
Супермодератор
Аватара пользователя
Дата регистрации:
06 июн 2014, 07:51
Спасибо: 576 / 0
Сообщения: 2002
Информация о фильме
Название: Мёртвые земли
Оригинальное название: The Dead Lands
Год выхода: 2014
Жанр: Приключения
Режиссер: Тоа Фрейзер
В ролях: Джеймс Роллестон, Лоуренс Макор, Ксавьер Хоран, Джордж Хинар, Рина Оуэн, Пена Хема Тейлор

О фильме: Действие происходит в доколониальной Новой Зеландии. Молодой сын вождя племени стремится отомстить убийцам своей семьи, изучая древние боевые искусства племени Маори при помощи легендарного воина.



Страна: Новая Зеландия, Великобритания
Студия: General Film Corporation
Продолжительность: 01:47:25
Перевод: Любительский двухголосый

Файл
Кодек: MPEG-2
Качество: DVD-9
Видео: MPEG2, NTSC 16:9 (720x480@853x480) VBR, 23,976 кадра/сек
Звук: Русский 2.0 (192 Kbps), Маори DD 5.1 (448 Kbps)

Title: Локальный диск
Size: 5.48 Gb ( 5 743 716 KBytes ) - DVD-9
Enabled regions: 1, 2, 3, 4, 5, 6, 7, 8
VTS_01 :
Play Length: 01:47:25
Video: NTSC 16:9 (720x480) VBR, Auto Pan&Scan
Audio:
Russian (Dolby AC3, 2 ch)
Maori (Dolby AC3, 6 ch)
Menu Video:
NTSC 4:3 (704x480) VBR
Menu English Language Unit :
Root Menu
Общее
Полное имя : D:1АААМЕРТВЫЕ ЗЕМЛИVIDEO_TSVTS_01_1.VOB
Формат : MPEG-PS
Размер файла : 1000 Мбайт
Продолжительность : 18 м.
Режим общего битрейта : Переменный
Общий поток : 7505 Кбит/сек
Видео
Идентификатор : 224 (0xE0)
Формат : MPEG Video
Версия формата : Version 2
Профиль формата : Main@Main
Параметр BVOP формата : Да
Параметр матрицы формата : По умолчанию
Параметр GOP формата : M=3, N=12
Продолжительность : 18 м.
Вид битрейта : Переменный
Битрейт : 6715 Кбит/сек
Максимальный битрейт : 9016 Кбит/сек
Ширина : 720 пикселей
Высота : 480 пикселей
Соотношение сторон : 16:9
Частота кадров : 23,976 кадра/сек
Стандарт вещания : NTSC
Цветовое пространство : YUV
Субдискретизация насыщенности : 4:2:0
Битовая глубина : 8 бит
Тип развёртки : Прогрессивная
Порядок развёртки : 2:3 Pulldown
Метод сжатия : С потерями
Бит/(Пиксели*Кадры) : 0.810
TimeCode_FirstFrame : 00:00:00;00
TimeCode_Source : Group of pictures header
Размер потока : 895 Мбайт (89%)
Аудио #1
Идентификатор : 189 (0xBD)-128 (0x80)
Формат : AC-3
Формат/Информация : Audio Coding 3
Расширение режима : CM (complete main)
Параметр Endianness формата : Big
Режим смешивания : DVD-Video
Продолжительность : 18 м.
Вид битрейта : Постоянный
Битрейт : 192 Кбит/сек
Каналы : 2 канала
Расположение каналов : Front: L R
Частота : 48,0 КГц
Битовая глубина : 16 бит
Метод сжатия : С потерями
Размер потока : 25,6 Мбайт (3%)
Аудио #2
Идентификатор : 189 (0xBD)-129 (0x81)
Формат : AC-3
Формат/Информация : Audio Coding 3
Расширение режима : CM (complete main)
Параметр Endianness формата : Big
Режим смешивания : DVD-Video
Продолжительность : 18 м.
Вид битрейта : Постоянный
Битрейт : 448 Кбит/сек
Каналы : 6 каналов
Расположение каналов : Front: L C R, Side: L R, LFE
Частота : 48,0 КГц
Битовая глубина : 16 бит
Метод сжатия : С потерями
Размер потока : 59,7 Мбайт (6%)
Меню




реклама партнёра


Вернуться к началу
 Профиль Отправить личное сообщение  
 
   Похожие торренты   Автор   Торрент   Размер 
В этой теме нет новых непрочитанных сообщений. Мёртвые земли / The Dead Lands (Тоа Фрейзер) [Боевик, Триллер, 2014] HDRip [BaibaKo]

Dracon

0 | 0

2.06 ГБ

В этой теме нет новых непрочитанных сообщений. Мёртвые земли / The Dead Lands (Тоа Фрейзер) [Боевик, Триллер, 2014] HDRip [BaibaKo]

Dracon

3411 | 86

1.46 ГБ

В этой теме нет новых непрочитанных сообщений. Мёртвые земли / The Dead Lands (Тоа Фрейзер) [Боевик, Триллер, 2014] HDRip [ColdFilm]

Dracon

59 | 0

1.46 ГБ

В этой теме нет новых непрочитанных сообщений. Мёртвые земли / The Dead Lands (Тоа Фрейзер) [Боевик, Триллер, 2014] BDRip 720p [BaibaKo]

Dracon

477 | 16

4.66 ГБ

В этой теме нет новых непрочитанных сообщений. Мёртвые земли / The Dead Lands (Тоа Фрейзер) [Боевик, Триллер, 2014] BDRip 720p [ColdFilm]

Dracon

123 | 5

4.51 ГБ

В этой теме нет новых непрочитанных сообщений. Мёртвые, проклятые и тьма / The Dead the Damned and the Darkness [Ужасы, 2014] BRRip 720р, Avo

salma3

912 | 92

2.27 ГБ

В этой теме нет новых непрочитанных сообщений. Мёртвые, проклятые и тьма / The Dead the Damned and the Darkness (Рене Перез) [Ужасы, Боевик, Триллер, 2014] HDRip, avo

Dracon

5 | 3

1.38 ГБ


Начать новую тему Ответить на тему  [ 1 сообщение ] 




Для Мосгорсуда, Роскомнадзора и рекламодателей:: mosgorsud-torrent[собачка]yandex.ru