Торрент файл
скачать торрент магнет ссылка Добавлен: 14 май 2015, 12:22
Размер: 5.45 ГБ
Сидеров: 4
Личеров: 2
Автор

СообщениеДобавлено: 14 май 2015, 12:22 

Не в сети
Супермодератор
Аватара пользователя
Дата регистрации:
15 фев 2012, 16:44
Возраст: 28
Спасибо: 6563 / 2130
Сообщения: 43556
Год выхода: 1989
Жанр: ужасы, триллер, комедия
Режиссер: Уэс Крэйвен
В ролях: Майкл Мерфи, Питер Берг, Митч Пилледжи, Сэм Скарбер, Камилль Купер, Тед Рэйми, Кит Энтони-Любов-Беллами, Хэзер Лэнгенкэмп, Вирджиния Моррис, Джон Тэш

О фильме:
Серийный убийца приговорен к казни на электрическом стуле. Однако он умудряется использовать электрошок, чтобы «воскреснуть» из мертвых. Причем он может выступать как в своем обличии, так и в образе своих жертв. И теперь он жаждет отомстить футболисту, который выдал маньяка-убийцу полиции.




лицам до 17 лет обязательно присутствие взрослого

Страна: США
Студия: Alive Films, Carolco Pictures Inc.
Продолжительность: 105 мин. / 01:45
Перевод: профессиональный (многоголосый, закадровый)

Файл
Кодек: MPEG2
Качество: DVD9 "CP-Digital"
Видео: PAL 16:9 (720x576@1024x576) VBR 5684 Kbps, 25.000 fps
Аудио: Dolby AC3, 6 ch, 48.0 KHz, 448 Kbps (русский, английский)
Субтитры: русские

Общее
Полное имя : E:ShockerVIDEO_TSVTS_04_1.VOB
Формат : MPEG-PS
Размер файла : 1024 Мбайт
Продолжительность : 21 м.
Режим общего битрейта : Переменный
Общий поток : 6714 Кбит/сек

Видео
Идентификатор : 224 (0xE0)
Формат : MPEG Video
Версия формата : Version 2
Профиль формата : Main@Main
Параметр BVOP формата : Да
Параметр матрицы формата : Выборочная
Параметр GOP формата : M=3, N=12
Структура изображения : Frame
Продолжительность : 21 м.
Вид битрейта : Переменный
Битрейт : 5684 Кбит/сек
Максимальный битрейт : 7500 Кбит/сек
Ширина : 720 пикселей
Высота : 576 пикселей
Соотношение сторон : 2,40:1
Частота кадров : 25,000 кадров/сек
Стандарт вещания : PAL
Цветовое пространство : YUV
Субдискретизация насыщенности : 4:2:0
Битовая глубина : 8 бит
Тип развёртки : Чересстрочная
Порядок развёртки : Верхнее поле первое
Метод сжатия : С потерями
Бит/(Пиксели*Кадры) : 0.548
Временной код первого кадра : 10:00:00:00
Оригинал временного кода : Group of pictures header
GOP, открыто/закрыто : Закрыто
Размер потока : 867 Мбайт (85%)

Аудио #1
Идентификатор : 189 (0xBD)-128 (0x80)
Формат : AC-3
Формат/Информация : Audio Coding 3
Расширение режима : CM (complete main)
Параметр Endianness формата : Big
Режим смешивания : DVD-Video
Продолжительность : 21 м.
Вид битрейта : Постоянный
Битрейт : 448 Кбит/сек
Каналы : 6 каналов
Расположение каналов : Front: L C R, Side: L R, LFE
Частота : 48,0 КГц
Битовая глубина : 16 бит
Метод сжатия : С потерями
Размер потока : 68,3 Мбайт (7%)

Аудио #2
Идентификатор : 189 (0xBD)-129 (0x81)
Формат : AC-3
Формат/Информация : Audio Coding 3
Расширение режима : CM (complete main)
Параметр Endianness формата : Big
Режим смешивания : DVD-Video
Продолжительность : 21 м.
Вид битрейта : Постоянный
Битрейт : 448 Кбит/сек
Каналы : 6 каналов
Расположение каналов : Front: L C R, Side: L R, LFE
Частота : 48,0 КГц
Битовая глубина : 16 бит
Метод сжатия : С потерями
Размер потока : 68,3 Мбайт (7%)

Меню



_________________
Проголосуй за трекер Открытый торрент трекер - RUS-MEDIA.ORG

Проголосуй Открытый торрент трекер - RUS-MEDIA.ORG



реклама партнёра


Вернуться к началу
 Профиль Отправить личное сообщение  
 
   Похожие торренты   Автор   Торрент   Размер 
В этой теме нет новых непрочитанных сообщений. Электрошок / Shocker [Ужасы, триллер, комедия, 1989] HDRip, Mvo

salma3

29 | 3

1.46 ГБ

В этой теме нет новых непрочитанных сообщений. Электрошок / Shocker [ужасы, триллер, комедия, 1989] HDRip-AVC, Mvo

salma3

53 | 15

746.14 МБ

В этой теме нет новых непрочитанных сообщений. Электрошок / Shocker [ужасы, триллер, комедия, 1989] BDRip 720p, 4Avo+Mvo+Sub

salma3

9 | 1

4.37 ГБ

В этой теме нет новых непрочитанных сообщений. Электрошок / Shocker [комедия, триллер, ужасы, мистика, 1989] BDRip 1080p, 4Avo+Mvo

salma3

39 | 10

12.73 ГБ

В этой теме нет новых непрочитанных сообщений. Муха 2 / The Fly II [ужасы, фантастика, 1989] DVD9, Mvo+Sub

salma3

3 | 2

4.66 ГБ

В этой теме нет новых непрочитанных сообщений. Добро пожаловать на каникулы / Nightmare Beach [ужасы, 1989] DVD9, Avo

salma3

60 | 26

6.19 ГБ

В этой теме нет новых непрочитанных сообщений. Общество / Society [триллер, ужасы, комедия, 1989] BDRip-AVC, Mvo

salma3

19 | 6

2.89 ГБ


СообщениеДобавлено: 24 авг 2015, 12:15 

Не в сети
Дата регистрации:
24 авг 2015, 11:58
Спасибо: 0 / 0
Сообщения: 2
I want a good answer from this forum.


Вернуться к началу
 Профиль Отправить личное сообщение  
 
Начать новую тему Ответить на тему  [ Сообщений: 2 ] 




Для Мосгорсуда, Роскомнадзора и рекламодателей:: mosgorsud-torrent[собачка]yandex.ru