Торрент файл
скачать торрент магнет ссылка Добавлен: 21 апр 2015, 19:59
Размер: 4.36 ГБ
Сидеров: 7
Личеров: 4
Автор

СообщениеДобавлено: 21 апр 2015, 19:59 

Не в сети
Супермодератор
Аватара пользователя
Дата регистрации:
15 фев 2012, 16:44
Возраст: 28
Спасибо: 6577 / 2143
Сообщения: 43952
Год выхода: 1994
Жанр: Триллер
Режиссер: Стивен Хопкинс

В ролях: Джефф Бриджес, Томми Ли Джонс, Сьюзи Эймис, Ллойд Бриджес, Форест Уитакер, Стефи Лайнбург, Джон Финн, Кэйтлин Кларк, Кристофер де Они, Лойд Кэтлетт

О фильме:Работающий в полиции сапер собирается жениться на прекрасной женщине, у которой есть замечательная дочка. Но его будущая жена не знает о прошлом своего мужа. А тот в молодости был ирландским террористом, специализирующимся на взрывах. Когда-то он предотвратил взрыв, в результате которого могли погибнуть сотни людей, но невольно стал причиной гибели своих товарищей и любимой девушки, дочери человека, который увлек его ложным героизмом этой жестокой борьбы и научил всему, что можно знать о бомбах. Сбежав из тюрьмы, учитель находит неблагодарного ученика и начинает мстить за предательство, убивая его коллег по работе, а в конце планируя убить его новую семью.



Продолжительность: 02:00:34
Перевод: Профессиональный многоголосый, профессиональный двухголосый, авторский (Гаврилов, Горчаков, Визгунов)
Файл
Кодек: MPEG-2
Качество: DVD-5
Видео: MPEG2, NTSC 16:9 (720x480@853x480) VBR, 23,976 кадра/сек
Звук: Русский / Английский DD 5.1 (448 Kbps), Русский DD 2.0 (192 Kbps)

Title:
Size: 4.36 Gb ( 4 576 862 KBytes ) - DVD-5
Enabled regions: 1, 2, 3, 4, 5, 6, 7, 8

VTS_01 :
Play Length: 02:00:34
Video: NTSC 16:9 (720x480) VBR, Auto Pan&Scan
Audio:
Russian (Dolby AC3, 6 ch)
Russian (Dolby AC3, 2 ch)
Russian (Dolby AC3, 2 ch)
Russian (Dolby AC3, 2 ch)
Russian (Dolby AC3, 2 ch)
English (Dolby AC3, 6 ch)

Menu Video:
NTSC 4:3 (704x480) VBR
Menu English Language Unit :
Root Menu
Общее
Полное имя : D:ААА2ПОДРЫВНИКИVIDEO_TSVTS_01_1.VOB
Формат : MPEG-PS
Размер файла : 1024 Мбайт
Продолжительность : 27 м.
Режим общего битрейта : Переменный
Общий поток : 5126 Кбит/сек

Видео
Идентификатор : 224 (0xE0)
Формат : MPEG Video
Версия формата : Version 2
Профиль формата : Main@Main
Параметр BVOP формата : Да
Параметр матрицы формата : Выборочная
Параметр GOP формата : Variable
Продолжительность : 27 м.
Вид битрейта : Переменный
Битрейт : 3488 Кбит/сек
Максимальный битрейт : 9800 Кбит/сек
Ширина : 720 пикселей
Высота : 480 пикселей
Соотношение сторон : 16:9
Частота кадров : 23,976 кадра/сек
Стандарт вещания : Component
Цветовое пространство : YUV
Субдискретизация насыщенности : 4:2:0
Битовая глубина : 8 бит
Тип развёртки : Прогрессивная
Порядок развёртки : 2:3 Pulldown
Метод сжатия : С потерями
Бит/(Пиксели*Кадры) : 0.421
TimeCode_FirstFrame : 01:00:01;15
TimeCode_Source : Group of pictures header
Размер потока : 697 Мбайт (68%)
Основные цвета : BT.601 NTSC
Характеристики трансфера : BT.601
Коэффициенты матрицы : BT.601

Аудио #1
Идентификатор : 189 (0xBD)-128 (0x80)
Формат : AC-3
Формат/Информация : Audio Coding 3
Расширение режима : CM (complete main)
Параметр Endianness формата : Big
Режим смешивания : DVD-Video
Продолжительность : 27 м.
Вид битрейта : Постоянный
Битрейт : 384 Кбит/сек
Каналы : 6 каналов
Расположение каналов : Front: L C R, Side: L R, LFE
Частота : 48,0 КГц
Битовая глубина : 16 бит
Метод сжатия : С потерями
Размер потока : 76,7 Мбайт (7%)

Аудио #2
Идентификатор : 189 (0xBD)-129 (0x81)
Формат : AC-3
Формат/Информация : Audio Coding 3
Расширение режима : CM (complete main)
Параметр Endianness формата : Big
Режим смешивания : DVD-Video
Продолжительность : 27 м.
Вид битрейта : Постоянный
Битрейт : 192 Кбит/сек
Каналы : 2 канала
Расположение каналов : Front: L R
Частота : 48,0 КГц
Битовая глубина : 16 бит
Метод сжатия : С потерями
Размер потока : 38,3 Мбайт (4%)

Аудио #3
Идентификатор : 189 (0xBD)-130 (0x82)
Формат : AC-3
Формат/Информация : Audio Coding 3
Расширение режима : CM (complete main)
Параметр Endianness формата : Big
Режим смешивания : DVD-Video
Продолжительность : 27 м.
Вид битрейта : Постоянный
Битрейт : 192 Кбит/сек
Каналы : 2 канала
Расположение каналов : Front: L R
Частота : 48,0 КГц
Битовая глубина : 16 бит
Метод сжатия : С потерями
Размер потока : 38,3 Мбайт (4%)

Аудио #4
Идентификатор : 189 (0xBD)-131 (0x83)
Формат : AC-3
Формат/Информация : Audio Coding 3
Расширение режима : CM (complete main)
Параметр Endianness формата : Big
Режим смешивания : DVD-Video
Продолжительность : 27 м.
Вид битрейта : Постоянный
Битрейт : 192 Кбит/сек
Каналы : 2 канала
Расположение каналов : Front: L R
Частота : 48,0 КГц
Битовая глубина : 16 бит
Метод сжатия : С потерями
Размер потока : 38,3 Мбайт (4%)

Аудио #5
Идентификатор : 189 (0xBD)-132 (0x84)
Формат : AC-3
Формат/Информация : Audio Coding 3
Расширение режима : CM (complete main)
Параметр Endianness формата : Big
Режим смешивания : DVD-Video
Продолжительность : 27 м.
Вид битрейта : Постоянный
Битрейт : 192 Кбит/сек
Каналы : 2 канала
Расположение каналов : Front: L R
Частота : 48,0 КГц
Битовая глубина : 16 бит
Метод сжатия : С потерями
Размер потока : 38,3 Мбайт (4%)

Аудио #6
Идентификатор : 189 (0xBD)-133 (0x85)
Формат : AC-3
Формат/Информация : Audio Coding 3
Расширение режима : CM (complete main)
Параметр Endianness формата : Big
Режим смешивания : DVD-Video
Продолжительность : 27 м.
Вид битрейта : Постоянный
Битрейт : 384 Кбит/сек
Каналы : 6 каналов
Расположение каналов : Front: L C R, Side: L R, LFE
Частота : 48,0 КГц
Битовая глубина : 16 бит
Метод сжатия : С потерями
Размер потока : 76,7 Мбайт (7%)

Текст
Идентификатор : 224 (0xE0)-CC3
Формат : EIA-608
Режим смешивания, доп. информация : Muxed in Video #1
Вид битрейта : Постоянный
Размер потока : 0,00 байт (0%)

Меню


Релиз:


_________________
Проголосуй за трекер Открытый торрент трекер - RUS-MEDIA.ORG

Проголосуй Открытый торрент трекер - RUS-MEDIA.ORG



реклама партнёра


Вернуться к началу
 Профиль Отправить личное сообщение  
 
   Похожие торренты   Автор   Торрент   Размер 
В этой теме нет новых непрочитанных сообщений. Digital Playground - Сметённые Огнём / Blown Away (2017) WEB-DL

salma3

32 | 6

1.66 ГБ

В этой теме нет новых непрочитанных сообщений. Подрывники / Blown Away [боевик, триллер, драма, криминал, 1994] HDRip, Mvo

salma3

11 | 3

1.46 ГБ

В этой теме нет новых непрочитанных сообщений. Подрывники / Blown Away [боевик, триллер, драма, криминал, 1994] BDRip 720p, Dub+Mvo+Dvo+Avo+Sub

salma3

44 | 21

6.4 ГБ

В этой теме нет новых непрочитанных сообщений. Подрывники / Blown Away [боевик, триллер, драма, криминал, 1994] BDRip 1080p, Dub+Mvo+Dvo+Avo+Sub

salma3

26 | 15

15.58 ГБ

В этой теме нет новых непрочитанных сообщений. Новый разум / Mind Blown [фантастика, боевик, триллер, 2016] HDTVRip, Mvo

salma3

3136 | 915

1.37 ГБ

В этой теме нет новых непрочитанных сообщений. Новый разум / Mind Blown [Фантастика, боевик, триллер, 2016] WEB-DLRip 1080p, Mvo

salma3

181 | 49

3.16 ГБ

В этой теме нет новых непрочитанных сообщений. Игра с огнем / Catch a Fire [Триллер, драма, биография, 2006] WEBRip 1080p, Mvo

salma3

52 | 62

7.78 ГБ


Начать новую тему Ответить на тему  [ 1 сообщение ] 




Для Мосгорсуда, Роскомнадзора и рекламодателей:: mosgorsud-torrent[собачка]yandex.ru