Торрент файл
скачать торрент магнет ссылка Добавлен: 21 апр 2015, 16:19
Размер: 4.66 ГБ
Сидеров: 3
Личеров: 2
Автор

СообщениеДобавлено: 21 апр 2015, 16:19 

В сети
Супермодератор
Аватара пользователя
Дата регистрации:
15 фев 2012, 16:44
Возраст: 27
Спасибо: 5139 / 2089
Сообщения: 17411
Год выхода: 1989
Жанр: ужасы, фантастика
Режиссер: Крис Уолас
В ролях: Эрик Столц, Дафна Зунига, Ли Ричардсон, Джон Гец, Фрэнк Ч. Тёрнер, Энн Мари Ли, Гари Чок, Сэффрон Хендерсон, Харли Кросс, Мэттью Мур

О фильме:
С виду Мартин выглядит как совершенно нормальный, здоровый молодой человек. Однако, под обыкновенным внешним обликом скрывается самый необыкновенный из когда-либо живших на земле людей.

Во-первых, он гений. Во-вторых, он взрослый мужчина, несмотря на то, что ему всего пять лет. Но что еще более интересно, Мартин — сын человека-мухи, ученого Сета Брандела, чей генетический код был изменен в ходе неудавшегося эксперимента.

Пройдет какое-то время, и эта генная мутация в организме Мартина даст о себе знать и выйдет из состояния анабиоза. Мартину предстоит пережить самую ужасающую трансформацию, которая когда-либо происходила с организмом человека.



лицам до 17 лет обязательно присутствие взрослого

Страна: США
Студия: Brooksfilms
Продолжительность: 100 мин. / 01:40
Перевод: профессиональный (многоголосый, закадровый)

Файл
Кодек: MPEG2
Качество: DVD9 "Двадцатый Век Фокс СНГ"
Видео: PAL 16:9 (720x576@1024x576) VBR 5596 Kbps, 25.000 fps
Аудио 1: Dolby AC3, 6 ch, 48.0 KHz, 448 Kbps (русский)
Аудио 2: Dolby AC3, 6 ch, 48.0 KHz, 448 Kbps (английский)
Субтитры: русские, украинские, английские

General
Complete name : D:FLY_2_THEVIDEO_TSVTS_01_1.VOB
Format : MPEG-PS
File size : 1 024 MiB
Duration : 21mn 36s
Overall bit rate mode : Variable
Overall bit rate : 6 624 Kbps

Video
ID : 224 (0xE0)
Format : MPEG Video
Format version : Version 2
Format profile : Main@Main
Format settings, BVOP : Yes
Format settings, Matrix : Custom
Format settings, GOP : M=3, N=15
Format settings, picture st : Frame
Duration : 21mn 36s
Bit rate mode : Variable
Bit rate : 5 596 Kbps
Maximum bit rate : 6 700 Kbps
Width : 720 pixels
Height : 576 pixels
Display aspect ratio : 16:9
Frame rate : 25.000 fps
Standard : PAL
Color space : YUV
Chroma subsampling : 4:2:0
Bit depth : 8 bits
Scan type : Interlaced
Scan order : Top Field First
Compression mode : Lossy
Bits/(Pixel*Frame) : 0.540
Time code of first frame : 00:59:59:00
Time code source : Group of pictures header
GOP, Open/Closed : Open
GOP, Open/Closed of first f : Closed
Stream size : 865 MiB (84%)

Audio #1
ID : 189 (0xBD)-128 (0x80)
Format : AC-3
Format/Info : Audio Coding 3
Mode extension : CM (complete main)
Format settings, Endianness : Big
Muxing mode : DVD-Video
Duration : 21mn 36s
Bit rate mode : Constant
Bit rate : 448 Kbps
Channel(s) : 6 channels
Channel positions : Front: L C R, Side: L R, LFE
Sampling rate : 48.0 KHz
Compression mode : Lossy
Stream size : 69.3 MiB (7%)

Audio #2
ID : 189 (0xBD)-129 (0x81)
Format : AC-3
Format/Info : Audio Coding 3
Mode extension : CM (complete main)
Format settings, Endianness : Big
Muxing mode : DVD-Video
Duration : 21mn 36s
Bit rate mode : Constant
Bit rate : 448 Kbps
Channel(s) : 6 channels
Channel positions : Front: L C R, Side: L R, LFE
Sampling rate : 48.0 KHz
Compression mode : Lossy
Stream size : 69.3 MiB (7%)

Text #1
ID : 189 (0xBD)-33 (0x21)
Format : RLE
Format/Info : Run-length encoding
Muxing mode : DVD-Video
Duration : 21mn 33s
Delay relative to video : 1s 920ms

Text #2
ID : 189 (0xBD)-34 (0x22)
Format : RLE
Format/Info : Run-length encoding
Muxing mode : DVD-Video
Duration : 21mn 33s
Delay relative to video : 1s 920ms

Text #3
ID : 189 (0xBD)-32 (0x20)
Format : RLE
Format/Info : Run-length encoding
Muxing mode : DVD-Video

Menu



_________________



реклама партнёра


Вернуться к началу
 Профиль Отправить личное сообщение  
 
   Похожие торренты   Автор   Торрент   Размер 
В этой теме нет новых непрочитанных сообщений. Муха 2 / The Fly II [ужасы, фантастика, 1989] DVDRip, Mvo

salma3

1 | 5

1.45 ГБ

В этой теме нет новых непрочитанных сообщений. Муха / The Fly [ужасы, фантастика, драма, 1986] DVD9, Mvo+Sub

salma3

4 | 3

4.87 ГБ

В этой теме нет новых непрочитанных сообщений. Муха / The Fly [Ужасы, Фантастика, 1986] HDRip, Mvo

salma3

2 | 6

1.45 ГБ

В этой теме нет новых непрочитанных сообщений. Муха / The Fly [ужасы, фантастика, драма, 1986] BDRip 720р, 4Mvo+2Avo

salma3

33 | 15

7.65 ГБ

В этой теме нет новых непрочитанных сообщений. Электрошок / Shocker [ужасы, триллер, комедия, 1989] DVD9, Mvo+Sub

salma3

4 | 1

5.45 ГБ

В этой теме нет новых непрочитанных сообщений. Левиафан / Leviathan [ужасы, фантастика, триллер, приключения, 1989] BDRip, Mvo+Avo

salma3

299 | 13

1.46 ГБ

В этой теме нет новых непрочитанных сообщений. Невеста реаниматора / Bride of Re-Animator [ужасы, фантастика, комедия, 1989] BDRip, Mvo

salma3

14 | 2

1.45 ГБ


Начать новую тему Ответить на тему  [ 1 сообщение ] 




Для Мосгорсуда, Роскомнадзора и рекламодателей:: mosgorsud-torrent[собачка]yandex.ru