Торрент файл
скачать торрент магнет ссылка Добавлен: 20 апр 2015, 16:26
Размер: 4.37 ГБ
Сидеров: 58
Личеров: 6
Автор

СообщениеДобавлено: 20 апр 2015, 16:26 

Не в сети
Зам. Админа
Аватара пользователя
Дата регистрации:
02 дек 2010, 12:39
Спасибо: 12458 / 214
Сообщения: 27968
Год выпуска: 2014
Производство: Великобритания, Франция / Studio Canal, Heyday Films, Canal+ [fr], TF1, Anton Capital Entertainment (ACE)
Жанр: Комедия, приключения, семейный

Режиссер: Пол Кинг
Продюсеры: Дэвид Хейман, Рози Элисон, Джеффри Клиффорд
Актеры: Бен Уишоу, Николь Кидман, Хью Бонневилль, Салли Хокинс, Джули Уолтерс, Мадлен Харрис, Сэмюэл Джослин, Джим Бродбент, Питер Капальди, Имелда Стонтон

Описание фильма:
Познакомьтесь, это медведь по имени Паддингтон из дремучего Перу. Он приехал в Лондон, чтобы обрести семью и стать настоящим английским джентльменом. На пути к этой цели его ожидают невероятные приключения, полные юмора и опасностей.

Перевод: Дублированный [лицензия]
Субтитры: Отсутствуют

Дата мировой премьеры: 23 ноября 2014
Дата российской премьеры: 22 января 2015, «Вольга»

Продолжительность: 01:31:42
Качество видео: DVD5
Видео: MPEG-2, 720x576@1024x576 (PAL 16:9), ~6200 Кбит/сек
Аудио 1: AC3 5.1, 448 Кбит/сек [Русский - дублированный]
Аудио 2: AC3 5.1, 448 Кбит/сек [Английский - оригинал]

Title: Paddington (2014) DVD5 PAL
Size: 4.37 Gb ( 4 583 230,00 KBytes ) - DVD-5
Enabled regions: 1, 2, 3, 4, 5, 6, 7, 8

VTS_01 :
Play Length: 01:31:42
Video: PAL 16:9 (720x576) VBR, Auto Letterboxed
Audio:
Russian (Dolby AC3, 6 ch)
English (Dolby AC3, 6 ch)

* Menus Information *

VIDEO_TS Menu
Video:
PAL 16:9 (720x576) VBR
Auto Letterboxed
Audio:
Not specified (Dolby AC3, 2 ch)
Russian Language Unit :
Title Menu

VTS_01 Menu
Video:
PAL 16:9 (720x576) VBR
Auto Letterboxed
Audio:
Not specified (Dolby AC3, 2 ch)
Russian Language Unit :
Root Menu
Audio Menu
Chapter (PTT) Menu
Общее
Полное имя : G:ВидеоPaddington (2014) DVD5 PALVIDEO_TSVTS_01_1.VOB
Формат : MPEG-PS
Размер файла : 1024 Мбайт
Продолжительность : 19 м.
Режим общего битрейта : Переменный
Общий поток : 7222 Кбит/сек

Видео
Идентификатор : 224 (0xE0)
Формат : MPEG Video
Версия формата : Version 2
Профиль формата : Main@Main
Параметр BVOP формата : Да
Параметр матрицы формата : Выборочная
Параметр GOP формата : Variable
Структура изображения : Frame
Продолжительность : 19 м.
Вид битрейта : Переменный
Битрейт : 6182 Кбит/сек
Ширина : 720 пикселей
Высота : 576 пикселей
Соотношение сторон : 16:9
Частота кадров : 25,000 кадров/сек
Стандарт вещания : PAL
Цветовое пространство : YUV
Субдискретизация насыщенности : 4:2:0
Битовая глубина : 8 бит
Тип развёртки : Чересстрочная
Порядок развёртки : Верхнее поле первое
Метод сжатия : С потерями
Бит/(Пиксели*Кадры) : 0.596
Временной код первого кадра : 00:00:00:00
Оригинал временного кода : Group of pictures header
Размер потока : 877 Мбайт (86%)

Аудио #1
Идентификатор : 189 (0xBD)-128 (0x80)
Формат : AC-3
Формат/Информация : Audio Coding 3
Расширение режима : CM (complete main)
Параметр Endianness формата : Big
Режим смешивания : DVD-Video
Продолжительность : 19 м.
Вид битрейта : Постоянный
Битрейт : 448 Кбит/сек
Каналы : 6 каналов
Расположение каналов : Front: L C R, Side: L R, LFE
Частота : 48,0 КГц
Битовая глубина : 16 бит
Метод сжатия : С потерями
Размер потока : 63,5 Мбайт (6%)

Аудио #2
Идентификатор : 189 (0xBD)-129 (0x81)
Формат : AC-3
Формат/Информация : Audio Coding 3
Расширение режима : CM (complete main)
Параметр Endianness формата : Big
Режим смешивания : DVD-Video
Продолжительность : 19 м.
Вид битрейта : Постоянный
Битрейт : 448 Кбит/сек
Каналы : 6 каналов
Расположение каналов : Front: L C R, Side: L R, LFE
Частота : 48,0 КГц
Битовая глубина : 16 бит
Метод сжатия : С потерями
Размер потока : 63,5 Мбайт (6%)

Меню

Исходник: Приключения Паддингтона / Paddington (2014) DVD9 | Custom
Удалены: предупреждающие надписи, доп. материалы (в меню кнопки закрыты).
Команды диска переписаны заново, оставлен один VTS.
Видео сжато на 5,2%
Меню: статичное, недействующие кнопки затерты и закрыты.
Обработка и сжатие: DVD ReMake Pro + DVD Rebuilder + CCE SP2 [7 проходов] + Работа с меню (Adobe PhotoShop и MuxMan).





реклама партнёра


Вернуться к началу
 Профиль  
 
   Похожие торренты   Автор   Торрент   Размер 
В этой теме нет новых непрочитанных сообщений. Приключения Паддингтона / Paddington (Пол Кинг) [комедия, семейный, 2014] HDRip, Dub [iTunes]

Dracon

999 | 135

1.46 ГБ

В этой теме нет новых непрочитанных сообщений. Приключения Паддингтона / Paddington (Пол Кинг) [комедия, семейный, 2014] BDRip 1080p, Dub [iTunes]

Dracon

245 | 16

9.88 ГБ

В этой теме нет новых непрочитанных сообщений. Приключения Паддингтона / Paddington (Пол Кинг) [комедия, семейный, 2014] WEB-DL 1080p, dub [Чистый звук]

Dracon

687 | 11

3.08 ГБ

В этой теме нет новых непрочитанных сообщений. Приключения Паддингтона / Paddington (Пол Кинг) [комедия, семейный, 2014] HDTV 720p, dub [Чистый звук]

Dracon

152 | 2

2.79 ГБ

В этой теме нет новых непрочитанных сообщений. Приключения Паддингтона / Paddington (Пол Кинг) [комедия, семейный, 2014] BDRip 720p, dub [Чистый звук]

Dracon

391 | 13

4.5 ГБ

В этой теме нет новых непрочитанных сообщений. Реальная белка / The Nut Job [мультфильм, комедия, приключения, семейный, 2014] DVD5, Dub [Лицензия]

Dracon

28 | 3

4.2 ГБ

В этой теме нет новых непрочитанных сообщений. Малефисента / Maleficent [фэнтези, мелодрама, приключения, семейный, 2014] DVD5, Dub+Sub [лицензия]

Dracon

126 | 18

4.37 ГБ


Начать новую тему Ответить на тему  [ 1 сообщение ] 




Для Мосгорсуда, Роскомнадзора и рекламодателей:: mosgorsud-torrent[собачка]yandex.ru