Торрент файл
скачать торрент магнет ссылка Добавлен: 30 мар 2015, 02:17
Размер: 6.75 ГБ
Сидеров: 7
Личеров: 7
Автор

СообщениеДобавлено: 30 мар 2015, 02:17 

Не в сети
Супермодератор
Аватара пользователя
Дата регистрации:
15 фев 2012, 16:44
Возраст: 27
Спасибо: 5950 / 2115
Сообщения: 28397
Год выхода: 1991
Жанр: Фантастика, боевик, триллер
Режиссер: Льюис Тиг

В ролях: Рутгер Хауэр, Мими Роджерс, Джоан Чен, Джеймс Римар, Стивен Тоболовски, Бейзил Уоллес, Гранд Л. Буш, Дэнис Форест, Гленн Пламмер, Белль Эйвери, Исмаэль ’Ист’ Карло, Эд Крик, Ричард Гилберт-Хилл, Зайд Фарид, Колин Хэмилтон, Гарри Джонсон, О-Лан Джонс, Кристофер Джаджес, Тина Лиффорд, Роб Моран, Даг МакХью, Шерри Пэйсингер, Альберт Стрэттон, Дэнни Трехо, Чарльз Уолкер, Марси Джо Уоррен

О фильме:Фрэнк Уоррен, его любовница Ноэл и лучший друг Сэм совершают дерзкое, но тщательно продуманное ограбление Всемирного торгового центра, похитив бриллианты на многие миллионы долларов. При уходе с места ограбления Фрэнк был ранен своими же подельниками и попал в руки полиции, но «камушки» успел спрятать. Фрэнка помещают в тюрьму, где нет ни стен, ни решеток, но на каждого заключенного надевается электронный ошейник, подключенный к ошейнику другого заключенного. Никто не знает своей пары, и стоит отойти друг от друга далее, чем на 100 метров, как взрывается бомба, вмонтированная в ошейник. Фрэнку удается найти свою пару, бежать они решаются вместе. По следам беглецов устремляются предатели, рассчитывающие выйти на спрятанные бриллианты, и… директор тюрьмы, организовавший побег.



Страна: США
Студия: Xenon Pictures, PolyGram Filmed Entertainment, Spectacor Films, Home Box Office (HBO)
Продолжительность: 01:38:13
Перевод: Профессиональный двухголосый, авторский (Гаврилов, Дольский, Королев)
Файл
Кодек: MPEG-2
Качество: DVD-9
Видео: MPEG2, NTSC 16:9 (720x480) VBR, 25,000 кадра/сек
Звук: Русский / Английский DD 2.0 (192 Kbps)

Title:
Size: 6.75 Gb ( 7 074 932 KBytes ) - DVD-9
Enabled regions: 1, 2, 3, 4, 5, 6, 7, 8

VTS_01 :
Play Length: 01:38:13
Video: PAL 4:3 (704x576) VBR
Audio:
Russian (Dolby AC3, 2 ch)
Russian (Dolby AC3, 2 ch)
Russian (Dolby AC3, 2 ch)
Russian (Dolby AC3, 2 ch)
English (Dolby AC3, 2 ch)

Menu Video:
PAL 4:3 (704x576) VBR
Menu English Language Unit :
Root Menu
бщее
Полное имя : D:ААА2Смертельные узыVIDEO_TSVTS_01_1.VOB
Формат : MPEG-PS
Размер файла : 1000 Мбайт
Продолжительность : 14 м.
Общий поток : 9816 Кбит/сек

Видео
Идентификатор : 224 (0xE0)
Формат : MPEG Video
Версия формата : Version 2
Профиль формата : Main@Main
Параметр BVOP формата : Да
Параметр матрицы формата : Выборочная
Параметр GOP формата : M=3, N=15
Продолжительность : 14 м.
Битрейт : 8700 Кбит/сек
Ширина : 720 пикселей
Высота : 576 пикселей
Соотношение сторон : 4:3
Частота кадров : 25,000 кадров/сек
Стандарт вещания : PAL
Цветовое пространство : YUV
Субдискретизация насыщенности : 4:2:0
Битовая глубина : 8 бит
Тип развёртки : Чересстрочная
Порядок развёртки : Верхнее поле первое
Метод сжатия : С потерями
Бит/(Пиксели*Кадры) : 0.839
TimeCode_FirstFrame : 00:06:29:12
TimeCode_Source : Group of pictures header
Размер потока : 883 Мбайт (88%)

Аудио #1
Идентификатор : 189 (0xBD)-128 (0x80)
Формат : AC-3
Формат/Информация : Audio Coding 3
Расширение режима : CM (complete main)
Параметр Endianness формата : Big
Режим смешивания : DVD-Video
Продолжительность : 14 м.
Вид битрейта : Постоянный
Битрейт : 192 Кбит/сек
Каналы : 2 канала
Расположение каналов : Front: L R
Частота : 48,0 КГц
Битовая глубина : 16 бит
Метод сжатия : С потерями
Задержка видео : -80 мс.
Размер потока : 19,6 Мбайт (2%)

Аудио #2
Идентификатор : 189 (0xBD)-129 (0x81)
Формат : AC-3
Формат/Информация : Audio Coding 3
Расширение режима : CM (complete main)
Параметр Endianness формата : Big
Режим смешивания : DVD-Video
Продолжительность : 14 м.
Вид битрейта : Постоянный
Битрейт : 192 Кбит/сек
Каналы : 2 канала
Расположение каналов : Front: L R
Частота : 48,0 КГц
Битовая глубина : 16 бит
Метод сжатия : С потерями
Задержка видео : -80 мс.
Размер потока : 19,6 Мбайт (2%)

Аудио #3
Идентификатор : 189 (0xBD)-130 (0x82)
Формат : AC-3
Формат/Информация : Audio Coding 3
Расширение режима : CM (complete main)
Параметр Endianness формата : Big
Режим смешивания : DVD-Video
Продолжительность : 14 м.
Вид битрейта : Постоянный
Битрейт : 192 Кбит/сек
Каналы : 2 канала
Расположение каналов : Front: L R
Частота : 48,0 КГц
Битовая глубина : 16 бит
Метод сжатия : С потерями
Задержка видео : -80 мс.
Размер потока : 19,6 Мбайт (2%)

Аудио #4
Идентификатор : 189 (0xBD)-131 (0x83)
Формат : AC-3
Формат/Информация : Audio Coding 3
Расширение режима : CM (complete main)
Параметр Endianness формата : Big
Режим смешивания : DVD-Video
Продолжительность : 14 м.
Вид битрейта : Постоянный
Битрейт : 192 Кбит/сек
Каналы : 2 канала
Расположение каналов : Front: L R
Частота : 48,0 КГц
Битовая глубина : 16 бит
Метод сжатия : С потерями
Задержка видео : -80 мс.
Размер потока : 19,6 Мбайт (2%)

Аудио #5
Идентификатор : 189 (0xBD)-132 (0x84)
Формат : AC-3
Формат/Информация : Audio Coding 3
Расширение режима : CM (complete main)
Параметр Endianness формата : Big
Режим смешивания : DVD-Video
Продолжительность : 14 м.
Вид битрейта : Постоянный
Битрейт : 192 Кбит/сек
Каналы : 2 канала
Расположение каналов : Front: L R
Частота : 48,0 КГц
Битовая глубина : 16 бит
Метод сжатия : С потерями
Задержка видео : -80 мс.
Размер потока : 19,6 Мбайт (2%)

Меню


Релиз:


_________________
Проголосуй за трекер Открытый торрент трекер - RUS-MEDIA.ORG




реклама партнёра


Вернуться к началу
 Профиль Отправить личное сообщение  
 
   Похожие торренты   Автор   Торрент   Размер 
В этой теме нет новых непрочитанных сообщений. Смертельные гонки 2000 года / Death Race 2000 [фантастика, боевик, комедия, спорт, 1975] BDRip-AVC, Avo

salma3

34 | 11

2.1 ГБ

В этой теме нет новых непрочитанных сообщений. Голубой торнадо / Blue Tornado [фантастика, боевик, триллер, 1991] DVDRip, Avo+Sub

salma3

43 | 3

831.73 МБ

В этой теме нет новых непрочитанных сообщений. Игрушечные солдатики / Toy Soldiers [Боевик, 1991] DVD9, Mvo+Dvo+Avo

salma3

0 | 5

6.56 ГБ

В этой теме нет новых непрочитанных сообщений. Терминатор 2: Судный день / Terminator 2: Judgment Day [Фантастика, боевик, триллер, 1991] Blu-Ray Remux 1080p, Mvo+Sub [Director's Cut]

salma3

72 | 16

24.16 ГБ

В этой теме нет новых непрочитанных сообщений. Дивергент / Divergent [Фантастика, боевик, триллер, приключения, 2014] DVD9, Dub [Лицензия]

salma3

75 | 10

7.16 ГБ

В этой теме нет новых непрочитанных сообщений. Смертельные соперники / Deadly Rivals [боевик, 1993] DVDRip, Dvo

salma3

8 | 6

744 МБ

В этой теме нет новых непрочитанных сообщений. Смертельные соперники / Deadly Rivals [боевик, 1993] DVDRip, Dvo

salma3

2 | 8

1.46 ГБ


Начать новую тему Ответить на тему  [ 1 сообщение ] 




Для Мосгорсуда, Роскомнадзора и рекламодателей:: mosgorsud-torrent[собачка]yandex.ru