Торрент файл
скачать торрент магнет ссылка Добавлен: 22 мар 2015, 10:41
Размер: 6.89 ГБ
Сидеров: 15
Личеров: 7
Автор

СообщениеДобавлено: 22 мар 2015, 10:41 

Не в сети
Зам. Админа
Аватара пользователя
Дата регистрации:
02 дек 2010, 12:39
Спасибо: 12611 / 214
Сообщения: 28049
Год выхода: 2014
Жанр: триллер, криминал, детектив
Режиссер: Джейсон Стоун
В ролях: Сьюзен Сарандон, Джил Беллоуз, Эллен Бёрстин, Тофер Грейс, Дональд Сазерленд, Кристофер Хейердал, Элла Бэллентайн, Кристин Бут, Кэти Лэйвери Бриер, Аманда Бругел

О фильме:
Опытный детектив Хейзел Микаллеф начинает расследование убийства пожилой респектабельной дамы и вскоре понимает, что это преступление — лишь одно из звеньев в цепи аналогичных злодеяний, совершенных жестоким серийным маньяком.



лицам до 17 лет обязательно присутствие взрослого

Страна: США
Студия: Breaking Ball Films, Manis Film, Stage 6 Films
Продолжительность: 104 мин. / 01:44
Перевод: профессиональный (многоголосый, закадровый)

Кодек: MPEG2
Качество: DVD9 "CP Дистрибуция"
Видео: PAL 16:9 (720x576@1024x576) VBR 5950 Kbps, 25.000 fps
Аудио 1: Dolby AC3, 6 ch, 48.0 KHz, 448 Kbps (английский)
Аудио 2: Dolby AC3, 6 ch, 48.0 KHz, 384 Kbps (русский)
Аудио 3: Dolby AC3, 6 ch, 48.0 KHz, 384 Kbps (чешский)
Аудио 4: Dolby AC3, 6 ch, 48.0 KHz, 384 Kbps (польский)
Аудио 5: Dolby AC3, 6 ch, 48.0 KHz, 384 Kbps (венгерский)
Субтитры: русские, английские, арабские, болгарские, хорватские, литовские, иврит, венгерские, исландские, словенские, польские, греческие, хинди, португальские, сербские, словацкие, турецкие

Общее
Полное имя: D:Призвание2014DVD9VIDEO_TSVTS_04_3.VOB
Формат: MPEG-PS
Размер файла: 1024 Мбайт
Продолжительность: 17 м.
Режим общего битрейта: Переменный
Общий поток: 8095 Кбит/сек

Видео
Идентификатор: 224 (0xE0)
Формат: MPEG Video
Версия формата: Version 2
Профиль формата: Main@Main
Параметр BVOP формата: Да
Параметр матрицы формата: Выборочная
Параметр GOP формата: Variable
Продолжительность: 17 м.
Вид битрейта: Переменный
Битрейт: 5950 Кбит/сек
Максимальный битрейт: 9800 Кбит/сек
Ширина: 720 пикселей
Высота: 576 пикселей
Соотношение сторон: 16:9
Частота кадров: 25,000 кадров/сек
Стандарт вещания: PAL
Цветовое пространство: YUV
Субдискретизация насыщенности: 4:2:0
Битовая глубина: 8 бит
Тип развёртки: Прогрессивная
Порядок развёртки: Верхнее поле первое
Метод сжатия: С потерями
Бит/(Пиксели*Кадры): 0.574
Размер потока: 752 Мбайт (73%)

Аудио #1
Идентификатор: 189 (0xBD)-128 (0x80)
Формат: AC-3
Формат/Информация: Audio Coding 3
Расширение режима: CM (complete main)
Параметр Endianness формата: Big
Режим смешивания: DVD-Video
Продолжительность: 17 м.
Вид битрейта: Постоянный
Битрейт: 448 Кбит/сек
Каналы: 6 каналов
Расположение каналов: Front: L C R, Side: L R, LFE
Частота: 48,0 КГц
Битовая глубина: 16 бит
Метод сжатия: С потерями
Задержка видео: -736 мс.
Размер потока: 56,7 Мбайт (6%)

Аудио #2
Идентификатор: 189 (0xBD)-129 (0x81)
Формат: AC-3
Формат/Информация: Audio Coding 3
Расширение режима: CM (complete main)
Параметр Endianness формата: Big
Режим смешивания: DVD-Video
Продолжительность: 17 м.
Вид битрейта: Постоянный
Битрейт: 384 Кбит/сек
Каналы: 6 каналов
Расположение каналов: Front: L C R, Side: L R, LFE
Частота: 48,0 КГц
Битовая глубина: 16 бит
Метод сжатия: С потерями
Задержка видео: -736 мс.
Размер потока: 48,6 Мбайт (5%)

Аудио #3
Идентификатор: 189 (0xBD)-130 (0x82)
Формат: AC-3
Формат/Информация: Audio Coding 3
Расширение режима: CM (complete main)
Параметр Endianness формата: Big
Режим смешивания: DVD-Video
Продолжительность: 17 м.
Вид битрейта: Постоянный
Битрейт: 384 Кбит/сек
Каналы: 6 каналов
Расположение каналов: Front: L C R, Side: L R, LFE
Частота: 48,0 КГц
Битовая глубина: 16 бит
Метод сжатия: С потерями
Задержка видео: -736 мс.
Размер потока: 48,6 Мбайт (5%)

Аудио #4
Идентификатор: 189 (0xBD)-131 (0x83)
Формат: AC-3
Формат/Информация: Audio Coding 3
Расширение режима: CM (complete main)
Параметр Endianness формата: Big
Режим смешивания: DVD-Video
Продолжительность: 17 м.
Вид битрейта: Постоянный
Битрейт: 384 Кбит/сек
Каналы: 6 каналов
Расположение каналов: Front: L C R, Side: L R, LFE
Частота: 48,0 КГц
Битовая глубина: 16 бит
Метод сжатия: С потерями
Задержка видео: -736 мс.
Размер потока: 48,6 Мбайт (5%)

Аудио #5
Идентификатор: 189 (0xBD)-132 (0x84)
Формат: AC-3
Формат/Информация: Audio Coding 3
Расширение режима: CM (complete main)
Параметр Endianness формата: Big
Режим смешивания: DVD-Video
Продолжительность: 17 м.
Вид битрейта: Постоянный
Битрейт: 384 Кбит/сек
Каналы: 6 каналов
Расположение каналов: Front: L C R, Side: L R, LFE
Частота: 48,0 КГц
Битовая глубина: 16 бит
Метод сжатия: С потерями
Задержка видео: -736 мс.
Размер потока: 48,6 Мбайт (5%)

Текст #1
Идентификатор: 189 (0xBD)-32 (0x20)
Формат: RLE
Формат/Информация: Run-length encoding
Режим смешивания: DVD-Video
Продолжительность: 17 м.
Задержка видео: 200 мс.

Текст #2
Идентификатор: 189 (0xBD)-33 (0x21)
Формат: RLE
Формат/Информация: Run-length encoding
Режим смешивания: DVD-Video
Продолжительность: 17 м.
Задержка видео: 200 мс.

Текст #3
Идентификатор: 189 (0xBD)-34 (0x22)
Формат: RLE
Формат/Информация: Run-length encoding
Режим смешивания: DVD-Video
Продолжительность: 17 м.
Задержка видео: 200 мс.

Текст #4
Идентификатор: 189 (0xBD)-35 (0x23)
Формат: RLE
Формат/Информация: Run-length encoding
Режим смешивания: DVD-Video
Продолжительность: 17 м.
Задержка видео: 200 мс.

Текст #5
Идентификатор: 189 (0xBD)-36 (0x24)
Формат: RLE
Формат/Информация: Run-length encoding
Режим смешивания: DVD-Video
Продолжительность: 17 м.
Задержка видео: 200 мс.

Текст #6
Идентификатор: 189 (0xBD)-37 (0x25)
Формат: RLE
Формат/Информация: Run-length encoding
Режим смешивания: DVD-Video
Продолжительность: 17 м.
Задержка видео: 200 мс.

Текст #7
Идентификатор: 189 (0xBD)-38 (0x26)
Формат: RLE
Формат/Информация: Run-length encoding
Режим смешивания: DVD-Video
Продолжительность: 17 м.
Задержка видео: 200 мс.

Текст #8
Идентификатор: 189 (0xBD)-39 (0x27)
Формат: RLE
Формат/Информация: Run-length encoding
Режим смешивания: DVD-Video
Продолжительность: 17 м.
Задержка видео: 200 мс.

Текст #9
Идентификатор: 189 (0xBD)-40 (0x28)
Формат: RLE
Формат/Информация: Run-length encoding
Режим смешивания: DVD-Video
Продолжительность: 17 м.
Задержка видео: 200 мс.

Текст #10
Идентификатор: 189 (0xBD)-41 (0x29)
Формат: RLE
Формат/Информация: Run-length encoding
Режим смешивания: DVD-Video
Продолжительность: 17 м.
Задержка видео: 200 мс.

Текст #11
Идентификатор: 189 (0xBD)-42 (0x2A)
Формат: RLE
Формат/Информация: Run-length encoding
Режим смешивания: DVD-Video
Продолжительность: 17 м.
Задержка видео: 200 мс.

Текст #12
Идентификатор: 189 (0xBD)-43 (0x2B)
Формат: RLE
Формат/Информация: Run-length encoding
Режим смешивания: DVD-Video
Продолжительность: 17 м.
Задержка видео: 200 мс.

Текст #13
Идентификатор: 189 (0xBD)-44 (0x2C)
Формат: RLE
Формат/Информация: Run-length encoding
Режим смешивания: DVD-Video
Продолжительность: 17 м.
Задержка видео: 200 мс.

Текст #14
Идентификатор: 189 (0xBD)-45 (0x2D)
Формат: RLE
Формат/Информация: Run-length encoding
Режим смешивания: DVD-Video
Продолжительность: 17 м.
Задержка видео: 200 мс.

Текст #15
Идентификатор: 189 (0xBD)-46 (0x2E)
Формат: RLE
Формат/Информация: Run-length encoding
Режим смешивания: DVD-Video
Продолжительность: 17 м.
Задержка видео: 200 мс.

Текст #16
Идентификатор: 189 (0xBD)-47 (0x2F)
Формат: RLE
Формат/Информация: Run-length encoding
Режим смешивания: DVD-Video
Продолжительность: 17 м.
Задержка видео: 200 мс.

Текст #17
Идентификатор: 189 (0xBD)-48 (0x30)
Формат: RLE
Формат/Информация: Run-length encoding
Режим смешивания: DVD-Video
Продолжительность: 17 м.
Задержка видео: 200 мс.

Меню





реклама партнёра


Вернуться к началу
 Профиль  
 
   Похожие торренты   Автор   Торрент   Размер 
В этой теме нет новых непрочитанных сообщений. Кибер / Blackhat (Майкл Манн) [боевик, триллер, драма, криминал, детектив, 2015] DVD9, Dub+Sub [лицензия]

Dracon

0 | 0

6.83 ГБ

В этой теме нет новых непрочитанных сообщений. Перекрестный огонь / Bad Country [триллер, драма, детектив, боевик, криминал, 2014] DVD5, Mvo+Sub [Лицензия]

Dracon

22 | 5

3.85 ГБ

В этой теме нет новых непрочитанных сообщений. Джейсон Борн / Jason Bourne [Боевик, триллер, 2016] DVD9, Dub

salma3

109 | 52

7.58 ГБ

В этой теме нет новых непрочитанных сообщений. Мачо и ботан 2 / 22 Jump Street [боевик, комедия, криминал, 2014] DVD9, Dub+Sub [лицензия]

Dracon

41 | 3

6.5 ГБ

В этой теме нет новых непрочитанных сообщений. Ледяной лес / La foresta di ghiaccio (Клаудио Ноче) [Триллер, 2014] DVD9, Mvo+Sub [Лицензия]

Dracon

114 | 42

5.45 ГБ

В этой теме нет новых непрочитанных сообщений. Мужчины, женщины и дети / Men, Women & Children (Джейсон Рейтмен) [драма, комедия, 2014] BDRip-AVC, Dub+Sub [Лицензия]

Dracon

195 | 6

2.18 ГБ

В этой теме нет новых непрочитанных сообщений. Мужчины, женщины и дети / Men, Women & Children (Джейсон Рейтмен) [драма, комедия, 2014] DVD5, Dub+Sub [Лицензия]

Dracon

59 | 21

4.36 ГБ


Начать новую тему Ответить на тему  [ 1 сообщение ] 




Для Мосгорсуда, Роскомнадзора и рекламодателей:: mosgorsud-torrent[собачка]yandex.ru