Торрент файл
скачать торрент магнет ссылка Добавлен: 18 мар 2015, 17:04
Размер: 5.19 ГБ
Сидеров: 32
Личеров: 8
Автор

СообщениеДобавлено: 18 мар 2015, 17:04 

Не в сети
Супермодератор
Аватара пользователя
Дата регистрации:
15 фев 2012, 16:44
Возраст: 27
Спасибо: 5143 / 2090
Сообщения: 17514
Год выхода: 2014
Жанр: Боевик, фантастика
Режиссер: Джон Лойд

В ролях: Жак Грэй, Скотт Хэнкс, Пол Хант, Мэттью Рис, Кевин Сорбо, Джэси Твисс

О фильме:Снайпер Кайл Мэттьюс вынужден выживать на вражеской территории. Но как, проявляя все свои навыки по уничтожению врага, принять сложное решение и выжить, одновременно оказав сострадание? На чашу весов будет поставлена жизнь...



Страна: США
Студия: Mainstay Productions
Продолжительность: 01:35:13
Перевод: Любительский одноголосый (zamez)
Файл
Кодек: MPEG-2
Качество: DVD-9
Видео: MPEG2, NTSC 16:9 (720x480) VBR, 23,976 кадра/сек
Звук: Русский DD 2.0 (192 Kbps), Английский DD 5.1 (384 Kbps)

Title:
Size: 5.19 Gb ( 5 443 254 KBytes ) - DVD-9
Enabled regions: 1, 2, 3, 4, 5, 6, 7, 8

VTS_01 :
Play Length: 01:35:13
Video: NTSC 16:9 (720x480) VBR, Auto Pan&Scan
Audio:
Russian (Dolby AC3, 2 ch)
English (Dolby AC3, 6 ch)

Menu Video:
NTSC 4:3 (704x480) VBR
Menu English Language Unit :
Root Menu
Общее
Полное имя : D:ААА2ОДИН ВЫСТРЕЛVIDEO_TSVTS_01_1.VOB
Формат : MPEG-PS
Размер файла : 1000 Мбайт
Продолжительность : 18 м.
Режим общего битрейта : Переменный
Общий поток : 7531 Кбит/сек

Видео
Идентификатор : 224 (0xE0)
Формат : MPEG Video
Версия формата : Version 2
Профиль формата : Main@Main
Параметр BVOP формата : Да
Параметр матрицы формата : По умолчанию
Параметр GOP формата : M=3, N=12
Продолжительность : 18 м.
Вид битрейта : Переменный
Битрейт : 6805 Кбит/сек
Максимальный битрейт : 9008 Кбит/сек
Ширина : 720 пикселей
Высота : 480 пикселей
Соотношение сторон : 16:9
Частота кадров : 23,976 кадра/сек
Стандарт вещания : NTSC
Цветовое пространство : YUV
Субдискретизация насыщенности : 4:2:0
Битовая глубина : 8 бит
Тип развёртки : Прогрессивная
Порядок развёртки : 2:3 Pulldown
Метод сжатия : С потерями
Бит/(Пиксели*Кадры) : 0.821
TimeCode_FirstFrame : 00:00:00;00
TimeCode_Source : Group of pictures header
Размер потока : 904 Мбайт (90%)

Аудио #1
Идентификатор : 189 (0xBD)-128 (0x80)
Формат : AC-3
Формат/Информация : Audio Coding 3
Расширение режима : CM (complete main)
Параметр Endianness формата : Big
Режим смешивания : DVD-Video
Продолжительность : 18 м.
Вид битрейта : Постоянный
Битрейт : 192 Кбит/сек
Каналы : 2 канала
Расположение каналов : Front: L R
Частота : 48,0 КГц
Битовая глубина : 16 бит
Метод сжатия : С потерями
Размер потока : 25,5 Мбайт (3%)

Аудио #2
Идентификатор : 189 (0xBD)-129 (0x81)
Формат : AC-3
Формат/Информация : Audio Coding 3
Расширение режима : CM (complete main)
Параметр Endianness формата : Big
Режим смешивания : DVD-Video
Продолжительность : 18 м.
Вид битрейта : Постоянный
Битрейт : 384 Кбит/сек
Каналы : 6 каналов
Расположение каналов : Front: L C R, Side: L R, LFE
Частота : 48,0 КГц
Битовая глубина : 16 бит
Метод сжатия : С потерями
Размер потока : 51,0 Мбайт (5%)

Меню


Релиз:


_________________



реклама партнёра


Вернуться к началу
 Профиль Отправить личное сообщение  
 
   Похожие торренты   Автор   Торрент   Размер 
В этой теме нет новых непрочитанных сообщений. Один выстрел / One Shot [боевик, 2014] DVDRip, Avo

salma3

2182 | 82

1.36 ГБ

В этой теме нет новых непрочитанных сообщений. Один выстрел  / One Shot (Джон Лойд) [Триллер, 2014] HDRip, avo

Dracon

4 | 3

1.37 ГБ

В этой теме нет новых непрочитанных сообщений. Снайперы / Выстрел сквозь сердце/ / Shot Through The Heart [боевик, драма, военный, 1998] DVDRip-AVC, Dvo

salma3

47 | 4

2.18 ГБ

В этой теме нет новых непрочитанных сообщений. Кровавый выстрел / Blood Shot (Дитрих Джонстон) [Ужасы, Боевик, Комедия, 2013] HDRip, avo

Dracon

7 | 3

1.37 ГБ

В этой теме нет новых непрочитанных сообщений. Кровавый выстрел / Blood Shot (Дитрих Джонстон) [Ужасы, Боевик, Комедия, 2013] BDRip 720p, avo

Dracon

19 | 12

4.5 ГБ

В этой теме нет новых непрочитанных сообщений. Предупредительный выстрел / Warning Shot [Детектив, 1967] IPTVRip, Mvo

salma3

68 | 0

1.45 ГБ

В этой теме нет новых непрочитанных сообщений. Выстрел в упор / Body Shot [Триллер, 1994] DVDRip, Avo

salma3

144 | 39

1.45 ГБ


Начать новую тему Ответить на тему  [ 1 сообщение ] 




Для Мосгорсуда, Роскомнадзора и рекламодателей:: mosgorsud-torrent[собачка]yandex.ru