Торрент файл
скачать торрент магнет ссылка Добавлен: 18 мар 2015, 16:56
Размер: 4.36 ГБ
Сидеров: 48
Личеров: 4
Автор

СообщениеДобавлено: 18 мар 2015, 16:56 

Не в сети
Зам. Админа
Аватара пользователя
Дата регистрации:
02 дек 2010, 12:39
Спасибо: 12623 / 214
Сообщения: 28012
«Он бросил вызов империи и изменил мир»

Год выпуска: 2014
Производство: Великобритания, США, Испания / 20th Century Fox, TSG Entertainment, Babieka, Chernin Entertainment, Scott Free Productions, Volcano Films
Жанр: Боевик, драма, приключения

Режиссер: Ридли Скотт
Продюсеры: Питер Чернин, Марк Хаффам, Майкл Шефер
Актеры: Кристиан Бэйл, Джоэл Эдгертон, Джон Туртурро, Аарон Пол, Бен Мендельсон, Мария Вальверде, Сигурни Уивер, Бен Кингсли, Хиам Аббасс, Исаак Эндрюс

Описание :
Ветхозаветная история о великом пророке Моисее и освобождении еврейского народа из египетского плена. Моисей появился на свет в те времена, когда фараон приказал убивать всех новорожденных мальчиков еврейского происхождения. Чтобы спасти его, мать положила малыша в корзину из тростника и отправила вниз по Нилу.

Ребенка нашла дочь фараона, которая усыновила его и растила рядом с Рамсесом — будущим фараоном. Много лет спустя, став мужчиной, Моисей бежит из Египта, а затем возвращается туда по велению Господа, чтобы избавить свой народ от оков рабства…

Перевод: Дублированный (iTunes)
Субтитры: Английские, русские

Дата мировой премьеры: 3 декабря 2014
Дата российской премьеры: 1 января 2015, «Двадцатый Век Фокс СНГ»
Дата выхода DVD релиза: 9 апреля 2015, «Двадцатый Век Фокс СНГ»


Продолжительность: 02:30:12
Качество видео: DVD5
Видео: MPEG-2, 720x480@853x480 (NTSC 16:9), ~2523 Кбит/сек
Аудио 1: AC3 5.1, 448 Кбит/сек [Английский - оригинал]
Аудио 2: AC3 5.1, 384 Кбит/сек [Английский - описательный]
Аудио 3: AC3 5.1, 384 Кбит/сек [Русский - дублированный]
Аудио 4: AC3 2.0, 192 Кбит/сек [Английский - комментарии]

Доп. материалы: Удаленные и расширенные сцены
Title: Exodus. Gods and Kings (2014) DVD5 NTSC
Size: 4.36 Gb ( 4 568 658,00 KBytes ) - DVD-5
Enabled regions: 1, 2, 3, 4, 5, 6, 7, 8

VTS_01 :
Play Length: 00:00:01
Video: NTSC 16:9 (720x480) VBR, Auto Letterboxed
Audio:
Not specified (Dolby AC3, 2 ch)
Not specified (Dolby AC3, 2 ch)
Not specified (Dolby AC3, 2 ch)
Not specified (Dolby AC3, 2 ch)
Not specified (Dolby AC3, 2 ch)
Not specified (Dolby AC3, 2 ch)
Not specified (Dolby AC3, 2 ch)
Not specified (Dolby AC3, 2 ch)
Subtitles:
Not specified
Not specified
Not specified
Not specified
Not specified
Not specified
Not specified
Not specified
Not specified
Not specified
Not specified
Not specified

VTS_02 :
Play Length: 00:00:11
Video: NTSC 16:9 (720x480) VBR, Auto Letterboxed
Audio:
Not specified (Dolby AC3, 6 ch)

VTS_03 :
Play Length: 00:00:00+00:00:00+00:00:01
Video: NTSC 16:9 (720x480) VBR, Auto Pan&Scan

VTS_04 :
Play Length: 02:30:12+00:00:00
Video: NTSC 16:9 (720x480) VBR, Auto Letterboxed
Audio:
English (Dolby AC3, 6 ch)
English (Dolby AC3, 6 ch)
Russian (Dolby AC3, 6 ch)
English (Dolby AC3, 2 ch)
Subtitles:
English
Russian
Russian

VTS_05 :
Play Length: 00:09:18+00:01:21+00:01:10+00:01:06+00:01:48+00:00:37+00:01:22+00:01:06+00:01:09
Video: NTSC 16:9 (720x480) VBR, Auto Letterboxed
Audio:
English (Dolby AC3, 2 ch)
Общее
Полное имя : H:ВидеоExodus. Gods and Kings (2014) DVD5 NTSCVIDEO_TSVTS_04_1.VOB
Формат : MPEG-PS
Размер файла : 1024 Мбайт
Продолжительность : 35 м.
Режим общего битрейта : Переменный
Общий поток : 4011 Кбит/сек

Видео
Идентификатор : 224 (0xE0)
Формат : MPEG Video
Версия формата : Version 2
Профиль формата : Main@Main
Параметр BVOP формата : Да
Параметр матрицы формата : Выборочная
Параметр GOP формата : Variable
Продолжительность : 35 м.
Вид битрейта : Переменный
Битрейт : 2523 Кбит/сек
Максимальный битрейт : 9800 Кбит/сек
Ширина : 720 пикселей
Высота : 480 пикселей
Соотношение сторон : 16:9
Частота кадров : 23,976 кадра/сек
Стандарт вещания : Component
Цветовое пространство : YUV
Субдискретизация насыщенности : 4:2:0
Битовая глубина : 8 бит
Тип развёртки : Прогрессивная
Порядок развёртки : 2:3 Pulldown
Метод сжатия : С потерями
Бит/(Пиксели*Кадры) : 0.304
Временной код первого кадра : 00:59:59;00
Оригинал временного кода : Group of pictures header
Размер потока : 644 Мбайт (63%)
Основные цвета : BT.601 NTSC
Характеристики трансфера : BT.601
Коэффициенты матрицы : BT.601

Аудио #1
Идентификатор : 189 (0xBD)-128 (0x80)
Формат : AC-3
Формат/Информация : Audio Coding 3
Расширение режима : CM (complete main)
Параметр Endianness формата : Big
Режим смешивания : DVD-Video
Продолжительность : 35 м.
Вид битрейта : Постоянный
Битрейт : 448 Кбит/сек
Каналы : 6 каналов
Расположение каналов : Front: L C R, Side: L R, LFE
Частота : 48,0 КГц
Битовая глубина : 16 бит
Метод сжатия : С потерями
Размер потока : 114 Мбайт (11%)

Аудио #2
Идентификатор : 189 (0xBD)-129 (0x81)
Формат : AC-3
Формат/Информация : Audio Coding 3
Расширение режима : CM (complete main)
Параметр Endianness формата : Big
Режим смешивания : DVD-Video
Продолжительность : 35 м.
Вид битрейта : Постоянный
Битрейт : 384 Кбит/сек
Каналы : 6 каналов
Расположение каналов : Front: L C R, Side: L R, LFE
Частота : 48,0 КГц
Битовая глубина : 16 бит
Метод сжатия : С потерями
Размер потока : 98,0 Мбайт (10%)

Аудио #3
Идентификатор : 189 (0xBD)-130 (0x82)
Формат : AC-3
Формат/Информация : Audio Coding 3
Расширение режима : CM (complete main)
Параметр Endianness формата : Big
Режим смешивания : DVD-Video
Продолжительность : 35 м.
Вид битрейта : Постоянный
Битрейт : 384 Кбит/сек
Каналы : 6 каналов
Расположение каналов : Front: L C R, Side: L R, LFE
Частота : 48,0 КГц
Битовая глубина : 16 бит
Метод сжатия : С потерями
Размер потока : 98,0 Мбайт (10%)

Аудио #4
Идентификатор : 189 (0xBD)-132 (0x84)
Формат : AC-3
Формат/Информация : Audio Coding 3
Расширение режима : CM (complete main)
Параметр Endianness формата : Big
Режим смешивания : DVD-Video
Продолжительность : 35 м.
Вид битрейта : Постоянный
Битрейт : 192 Кбит/сек
Каналы : 2 канала
Расположение каналов : Front: L R
Частота : 48,0 КГц
Битовая глубина : 16 бит
Метод сжатия : С потерями
Размер потока : 49,0 Мбайт (5%)

Текст #1
Идентификатор : 189 (0xBD)-32 (0x20)
Формат : RLE
Формат/Информация : Run-length encoding
Режим смешивания : DVD-Video
Продолжительность : 35 м.

Текст #2
Идентификатор : 224 (0xE0)-CC3
Формат : EIA-608
Режим смешивания, доп. информация : Muxed in Video #1
Вид битрейта : Постоянный
Размер потока : 0,00 байт (0%)

Текст #3
Идентификатор : 189 (0xBD)-33 (0x21)
Формат : RLE
Формат/Информация : Run-length encoding
Режим смешивания : DVD-Video

Меню

Исходником послужил зарубежный DVD5. Испанскую и французскую звуковую дорожку заменил на русскую вместе с субтитрами. Меню анимированное на английском языке. Предупреждающие надписи удалил.
Использовались программы: MKVExtractGUI2, DVD ReMake Pro, PgcDemux, Adobe PhotoShop, MuxMan, Subtitle Workshop, MaestroSBT, DVDSubEdit

Работоспособность проверена на софтовом и на бытовом плеере.





реклама партнёра


Вернуться к началу
 Профиль  
 
   Похожие торренты   Автор   Торрент   Размер 
В этой теме нет новых непрочитанных сообщений. Исход: Цари и боги / Exodus: Gods and Kings (Ридли Скотт) [боевик, драма, приключения, 2014] HDRip, Dub [iTunes]

Dracon

364 | 5

1.37 ГБ

В этой теме нет новых непрочитанных сообщений. Исход: Цари и боги / Exodus: Gods and Kings (Ридли Скотт) [боевик, драма, приключения, 2014] HDRip, Dub [iTunes]

Dracon

192 | 8

2.05 ГБ

В этой теме нет новых непрочитанных сообщений. Исход: Цари и боги / Exodus: Gods and Kings (Ридли Скотт) [боевик, драма, приключения, 2014] WEB-DLRip-AVC, Dub [iTunes]

Dracon

660 | 8

3.29 ГБ

В этой теме нет новых непрочитанных сообщений. Исход: Цари и боги / Exodus: Gods and Kings (Ридли Скотт) [боевик, драма, приключения, 2014] HDRip, Dub [iTunes]

Dracon

167 | 7

2.74 ГБ

В этой теме нет новых непрочитанных сообщений. Исход: Цари и боги / Exodus: Gods and Kings (Ридли Скотт) [боевик, драма, приключения, 2014] DVD5, Dub+Sub [сжатый]

Dracon

29 | 11

4.37 ГБ

В этой теме нет новых непрочитанных сообщений. Исход: Цари и боги / Exodus: Gods and Kings (Ридли Скотт) [боевик, драма, приключения, 2014] BDRip 1080p, Dub+Sub [iTunes]

Dracon

809 | 45

11.55 ГБ

В этой теме нет новых непрочитанных сообщений. Исход: Цари и боги / Exodus: Gods and Kings (Ридли Скотт) [боевик, драма, приключения, 2014] BDRemux 1080p, Dub+Sub [iTunes]

Dracon

70 | 7

34.35 ГБ


Начать новую тему Ответить на тему  [ 1 сообщение ] 




Для Мосгорсуда, Роскомнадзора и рекламодателей:: mosgorsud-torrent[собачка]yandex.ru