Торрент файл
скачать торрент магнет ссылка Добавлен: 07 фев 2015, 12:29
Размер: 4.38 ГБ
Сидеров: 3
Личеров: 4
Автор

СообщениеДобавлено: 07 фев 2015, 12:29 

Не в сети
Зам. Админа
Аватара пользователя
Дата регистрации:
02 дек 2010, 12:39
Спасибо: 12460 / 214
Сообщения: 27968
Год выхода: 2014
Жанр: Ужасы
Режиссер: Джон Р. Леонетти
В ролях: Аннабелль Уоллис, Уорд Хортон, Элфри Вудард, Тони Амендола, Эрик Ладин, Керри О’Мэлли, Брайан Хау, Ивар Броггер, Джофф Уэнер, Гэбриел Бейтман

О фильме:
Джон находит идеальный подарок для своей жены — это редкая старинная кукла в белом свадебном платье. Но восторг от подарка продлился не долго. Однажды ночью в их дом вторгаются члены сатанинского культа…

Страна: США
Студия: Warner Bros., New Line Cinema, Evergreen Media, RatPac-Dune Entertainment, The Safran Company
Продолжительность: 01:34:46
Перевод: Профессиональный (дублированный) [лицензия]

Кодек: MPEG-2
Качество: DVD5 (сжатый)
Видео: 720x576@1024x576 (PAL 16:9), ~5957 Кбит/сек
Звук: AC3 5.1, 384 Кбит/сек [Английский / Русский(дуб)]
Субтитры: Английские, болгарские, хорватские, эстонские, латышские, литовские, польские, русские, словенские, турецкие, украинские

Семпл
Общее
Полное имя : G:ВидеоAnnabelle (2014) DVD5VIDEO_TSVTS_01_1.VOB
Формат : MPEG-PS
Размер файла : 1024 Мбайт
Продолжительность : 20 м.
Режим общего битрейта : Переменный
Общий поток : 6862 Кбит/сек
Видео
Идентификатор : 224 (0xE0)
Формат : MPEG Video
Версия формата : Version 2
Профиль формата : Main@Main
Параметр BVOP формата : Да
Параметр матрицы формата : Выборочная
Параметр GOP формата : Variable
Format_Settings_PictureStructure : Frame
Продолжительность : 20 м.
Вид битрейта : Переменный
Битрейт : 5957 Кбит/сек
Максимальный битрейт : 7500 Кбит/сек
Ширина : 720 пикселей
Высота : 576 пикселей
Соотношение сторон : 16:9
Частота кадров : 25,000 кадров/сек
Стандарт вещания : PAL
Цветовое пространство : YUV
Субдискретизация насыщенности : 4:2:0
Битовая глубина : 8 бит
Тип развёртки : Чересстрочная
Порядок развёртки : Верхнее поле первое
Метод сжатия : С потерями
Бит/(Пиксели*Кадры) : 0.575
Временной код первого кадра : 00:00:00:00
Оригинал временного кода : Group of pictures header
Размер потока : 889 Мбайт (87%)
Аудио #1
Идентификатор : 189 (0xBD)-128 (0x80)
Формат : AC-3
Формат/Информация : Audio Coding 3
Расширение режима : CM (complete main)
Параметр Endianness формата : Big
Режим смешивания : DVD-Video
Продолжительность : 20 м.
Вид битрейта : Постоянный
Битрейт : 384 Кбит/сек
Каналы : 6 каналов
Расположение каналов : Front: L C R, Side: L R, LFE
Частота : 48,0 КГц
Битовая глубина : 16 бит
Метод сжатия : С потерями
Размер потока : 57,3 Мбайт (6%)
Аудио #2
Идентификатор : 189 (0xBD)-130 (0x82)
Формат : AC-3
Формат/Информация : Audio Coding 3
Расширение режима : CM (complete main)
Параметр Endianness формата : Big
Режим смешивания : DVD-Video
Продолжительность : 20 м.
Вид битрейта : Постоянный
Битрейт : 384 Кбит/сек
Каналы : 6 каналов
Расположение каналов : Front: L C R, Side: L R, LFE
Частота : 48,0 КГц
Битовая глубина : 16 бит
Метод сжатия : С потерями
Размер потока : 57,3 Мбайт (6%)
Текст #1
Идентификатор : 189 (0xBD)-32 (0x20)
Формат : RLE
Формат/Информация : Run-length encoding
Режим смешивания : DVD-Video
Текст #2
Идентификатор : 189 (0xBD)-33 (0x21)
Формат : RLE
Формат/Информация : Run-length encoding
Режим смешивания : DVD-Video
Текст #3
Идентификатор : 189 (0xBD)-34 (0x22)
Формат : RLE
Формат/Информация : Run-length encoding
Режим смешивания : DVD-Video
Текст #4
Идентификатор : 189 (0xBD)-35 (0x23)
Формат : RLE
Формат/Информация : Run-length encoding
Режим смешивания : DVD-Video
Текст #5
Идентификатор : 189 (0xBD)-36 (0x24)
Формат : RLE
Формат/Информация : Run-length encoding
Режим смешивания : DVD-Video
Текст #6
Идентификатор : 189 (0xBD)-37 (0x25)
Формат : RLE
Формат/Информация : Run-length encoding
Режим смешивания : DVD-Video
Текст #7
Идентификатор : 189 (0xBD)-38 (0x26)
Формат : RLE
Формат/Информация : Run-length encoding
Режим смешивания : DVD-Video
Текст #8
Идентификатор : 189 (0xBD)-39 (0x27)
Формат : RLE
Формат/Информация : Run-length encoding
Режим смешивания : DVD-Video
Текст #9
Идентификатор : 189 (0xBD)-40 (0x28)
Формат : RLE
Формат/Информация : Run-length encoding
Режим смешивания : DVD-Video
Текст #10
Идентификатор : 189 (0xBD)-41 (0x29)
Формат : RLE
Формат/Информация : Run-length encoding
Режим смешивания : DVD-Video
Текст #11
Идентификатор : 189 (0xBD)-42 (0x2A)
Формат : RLE
Формат/Информация : Run-length encoding
Режим смешивания : DVD-Video
Меню




реклама партнёра


Вернуться к началу
 Профиль  
 
   Похожие торренты   Автор   Торрент   Размер 
В этой теме нет новых непрочитанных сообщений. Проклятие Аннабель / Annabelle (Джон Р. Леонетти) [ужасы, 2014] BDRip, Dub [Лицензия]

Dracon

328 | 10

1.46 ГБ

В этой теме нет новых непрочитанных сообщений. Проклятие Аннабель / Annabelle (Джон Р. Леонетти) [ужасы, 2014] BDRip 720p, Dub+Sub [Лицензия]

Dracon

45 | 8

4.94 ГБ

В этой теме нет новых непрочитанных сообщений. Проклятие Аннабель / Annabelle (Джон Р. Леонетти) [ужасы, 2014] BDRip 1080p, Dub+Sub [Лицензия]

Dracon

123 | 14

7.1 ГБ

В этой теме нет новых непрочитанных сообщений. Проклятие Аннабель / Annabelle (Джон Р. Леонетти) [ужасы, 2014] HDRip, Dub [iTunes]

Dracon

1241 | 48

1.46 ГБ

В этой теме нет новых непрочитанных сообщений. Проклятие Аннабель / Annabelle (Джон Р. Леонетти) [ужасы, 2014] BDRip 1080p, Dub+Sub [iTunes]

Dracon

6 | 2

9.4 ГБ

В этой теме нет новых непрочитанных сообщений. Проклятие Аннабель / Annabelle (Джон Р. Леонетти) [ужасы, 2014] BDRip 720p, Dub [iTunes]

Dracon

3 | 2

4.63 ГБ

В этой теме нет новых непрочитанных сообщений. Проклятие Аннабель / Annabelle [ужасы, 2014] WEB-DL 720p, Dub [iTunes]

Dracon

12 | 2

3.31 ГБ


Начать новую тему Ответить на тему  [ 1 сообщение ] 




Для Мосгорсуда, Роскомнадзора и рекламодателей:: mosgorsud-torrent[собачка]yandex.ru