Торрент файл
скачать торрент магнет ссылка Добавлен: 31 янв 2015, 21:16
Размер: 3.94 ГБ
Сидеров: 47
Личеров: 15
Автор

СообщениеДобавлено: 31 янв 2015, 21:16 

Не в сети
Зам. Админа
Аватара пользователя
Дата регистрации:
02 дек 2010, 12:39
Спасибо: 12461 / 214
Сообщения: 27968
Год выхода: 2014
Жанр: драма, мелодрама, биография
Режиссер: Джалиль Леспер / Jalil Lespert
В ролях: Пьер Нинэ, Гийом Гальенн, Шарлотта Ле Бон, Лаура Смет, Мари де Вильпен, Николай Кински, Рубен Алвес, Астрид Ветналл, Марианн Басле, Аделин О’Эрми

О фильме:
Париж, январь 1958 года. Ив Сен Лоран в возрасте 21-го года неожиданно был призван управлять большими домами моды, которыми заведовал недавно умерший Кристиан Диор. Очень молодой помощник привлек всеобщее внимание своей первой же коллекцией одежды…



Страна: Франция, Бельгия
Студия: Canal+ [fr], Centre National de la Cinématographie (CNC), CinГ©france 1888, Cofinova 10, Hérodiade, IndГ©films 2, Orange Cinéma Séries, Procirep, SND, uFund, uMedia Family, Wy Productions
Продолжительность: 01:41:22
Перевод: Профессиональный (многоголосый закадровый) [Лицензия]

Кодек: MPEG2
Качество: DVD R5
Видео: PAL 16:9 (720x576(0.497)) MPEG Video, 25,000 кадр/сек, 5149 Кбит/сек
Звук: Russian (Dolby AC3, 6 ch) 448 Кбит/сек, 48,0 КГц
Субтитры: украинские

Title:
Size: 3.94 Gb ( 4 136 630 KBytes ) - DVD-5
Enabled regions: 1, 2, 3, 4, 5, 6, 7, 8

VTS_01 :
Play Length: 01:41:22
Video: PAL 16:9 (720x576) VBR, Auto Pan&Scan
Audio:
Russian (Dolby AC3, 6 ch)
Subtitles:
Ukrainian

VTS_02 :
Play Length: 00:00:08
Video: PAL 4:3 (720x576) VBR

VTS_03 :
Play Length: 00:00:11
Video: PAL 16:9 (720x576) VBR, Auto Pan&Scan
Subtitles:
English

Menu Video:
NTSC 4:3 (720x480) VBR
Auto Pan&Scan, Auto Letterboxed
Menu Russian Language Unit :
Root Menu
Subpicture Menu
Chapter (PTT) Menu
Общее
Полное имя : F:Новинки 2015Iv.Sen-Loran.2014.D.DVD5VIDEO_TSVTS_01_3.VOB
Формат : MPEG-PS
Размер файла : 1024 Мбайт
Продолжительность : 25 м.
Режим общего битрейта : Переменный
Общий поток : 5710 Кбит/сек

Видео
Идентификатор : 224 (0xE0)
Формат : MPEG Video
Версия формата : Version 2
Профиль формата : Main@Main
Параметр BVOP формата : Да
Параметр матрицы формата : Выборочная
Параметр GOP формата : M=3, N=15
Format_Settings_PictureStructure : Frame
Продолжительность : 25 м.
Вид битрейта : Переменный
Битрейт : 5149 Кбит/сек
Максимальный битрейт : 8000 Кбит/сек
Ширина : 720 пикселей
Высота : 576 пикселей
Соотношение сторон : 16:9
Частота кадров : 25,000 кадров/сек
Стандарт вещания : PAL
Цветовое пространство : YUV
Субдискретизация насыщенности : 4:2:0
Битовая глубина : 8 бит
Тип развёртки : Чересстрочная
Порядок развёртки : Верхнее поле первое
Метод сжатия : С потерями
Бит/(Пиксели*Кадры) : 0.497
Временной код первого кадра : 00:53:40:14
Оригинал временного кода : Group of pictures header
Размер потока : 923 Мбайт (90%)

Аудио
Идентификатор : 189 (0xBD)-128 (0x80)
Формат : AC-3
Формат/Информация : Audio Coding 3
Расширение режима : CM (complete main)
Параметр Endianness формата : Big
Режим смешивания : DVD-Video
Продолжительность : 25 м.
Вид битрейта : Постоянный
Битрейт : 448 Кбит/сек
Каналы : 6 каналов
Расположение каналов : Front: L C R, Side: L R, LFE
Частота : 48,0 КГц
Битовая глубина : 16 бит
Метод сжатия : С потерями
Задержка видео : -800 мс.
Размер потока : 80,3 Мбайт (8%)

Текст
Идентификатор : 189 (0xBD)-32 (0x20)
Формат : RLE
Формат/Информация : Run-length encoding
Режим смешивания : DVD-Video
Задержка видео : -200 мс.





реклама партнёра


Вернуться к началу
 Профиль  
 
   Похожие торренты   Автор   Торрент   Размер 
В этой теме нет новых непрочитанных сообщений. Ив Сен-Лоран / Yves Saint Laurent [драма, биография, 2014] WEBRip, Mvo

Dracon

917 | 18

1.37 ГБ

В этой теме нет новых непрочитанных сообщений. Сен-Лоран. Стиль – это я / Saint Laurent [драма, биография, 2014] WEB-DL 1080p, dub [чистый звук]

Dracon

33 | 4

4.41 ГБ

В этой теме нет новых непрочитанных сообщений. Сен-Лоран. Стиль – это я / Saint Laurent [драма, биография, 2014] WEB-DLRip, dub [чистый звук]

Dracon

9 | 2

2.18 ГБ

В этой теме нет новых непрочитанных сообщений. Сен-Лоран. Стиль – это я / Saint Laurent [драма, биография, 2014] HDRip, dub [чистый звук]

Dracon

6 | 3

1.46 ГБ

В этой теме нет новых непрочитанных сообщений. Сен-Лоран. Стиль – это я / Saint Laurent (Бертран Бонелло) [драма, биография, 2014] HDRip, Dub [iTunes]

Dracon

6 | 4

2.05 ГБ

В этой теме нет новых непрочитанных сообщений. Сен-Лоран. Стиль – это я / Saint Laurent [драма, биография, 2014] BDRip 720p, dub [чистый звук]

Dracon

4 | 2

6.95 ГБ

В этой теме нет новых непрочитанных сообщений. Я дышу / Respire (Мелани Лоран / Mélanie Laurent) [2014г., Франция, драма, WEB-DLRip] DUB

Alfredovich

277 | 12

1.37 ГБ


Начать новую тему Ответить на тему  [ 1 сообщение ] 




Для Мосгорсуда, Роскомнадзора и рекламодателей:: mosgorsud-torrent[собачка]yandex.ru