Торрент файл
скачать торрент магнет ссылка Добавлен: 20 янв 2015, 13:00
Размер: 7.83 ГБ
Сидеров: 26
Личеров: 11
Автор

СообщениеДобавлено: 20 янв 2015, 13:00 

Не в сети
Супермодератор
Аватара пользователя
Дата регистрации:
15 фев 2012, 16:44
Возраст: 28
Спасибо: 6574 / 2142
Сообщения: 43825
Год выхода: 1997
Жанр: триллер, драма, криминал, детектив
Режиссер: Гэри Фледер
В ролях: Морган Фриман, Эшли Джадд, Кэри Элвис, Алекс МакАртур, Тони Голдуин, Джей О. Сэндерс, Билл Нанн, Брайан Кокс, Ричард Т. Джонс, Рома Маффиа

О фильме:
Похищено восемь молодых красивых и талантливых женщин. Все они могут погибнуть, если полицейский Алекс Кросс и свидетельница Кейт Мактайернан не смогут обнаружить логово неуловимого маньяка, который называет себя Казанова.

От городков Дальнего Юга до побережья Калифорнии разворачивается охота. Энергичной свидетельнице Мактайрнан единственной удалось вырваться из лап Казановы, и теперь ее цель — освободить оставшуюся в секретном логове подругу.



лицам до 17 лет обязательно присутствие взрослого

Страна: США
Студия: Paramount Pictures
Продолжительность: 116 мин. / 01:56
Перевод 1: профессиональный (многоголосый, закадровый)
Перевод 2: авторский (одноголосый, закадровый)

Файл
Кодек: MPEG2
Качество: BD -> DVD9
Видео: NTSC 16:9 (720x480@853x480) VBR 7033 Kbps, 23.976 fps
Аудио 1: Dolby AC3, 6 ch, 48.0 KHz, 448 Кbps (многоголосый R5)
Аудио 2: Dolby AC3, 6 ch, 48.0 KHz, 448 Кbps (многоголосый НТВ+)
Аудио 3: Dolby AC3, 6 ch, 48.0 KHz, 448 Кbps (оригинал)
Аудио 4: Dolby AC3, 6 ch, 48.0 KHz, 448 Кbps (двухголосый)
Аудио 5: Dolby AC3, 6 ch, 48.0 KHz, 448 Кbps (А.Гаврилов)
Аудио 6: Dolby AC3, 2 ch, 48.0 KHz, 192 Kbps (А.Кашкин)
Субтитры: русские, английские

General
Complete name : E:Kiss the Girls_1997BD-DVDVIDEO_TSVTS_01_1.VOB
Format : MPEG-PS
File size : 1 024 MiB
Duration : 14mn 49s
Overall bit rate mode : Variable
Overall bit rate : 9 658 Kbps

Video
ID : 224 (0xE0)
Format : MPEG Video
Format version : Version 2
Format profile : Main@Main
Format settings, BVOP : Yes
Format settings, Matrix : Custom
Format settings, GOP : M=3, N=12
Duration : 14mn 49s
Bit rate mode : Variable
Bit rate : 7 033 Kbps
Maximum bit rate : 7 300 Kbps
Width : 720 pixels
Height : 480 pixels
Display aspect ratio : 16:9
Frame rate : 23.976 fps
Standard : NTSC
Color space : YUV
Chroma subsampling : 4:2:0
Bit depth : 8 bits
Scan type : Progressive
Scan order : 2:3 Pulldown
Compression mode : Lossy
Bits/(Pixel*Frame) : 0.849
Time code of first frame : 00:00:00:00
Time code source : Group of pictures header
Stream size : 746 MiB (73%)

Audio #1
ID : 189 (0xBD)-128 (0x80)
Format : AC-3
Format/Info : Audio Coding 3
Mode extension : CM (complete main)
Format settings, Endianness : Big
Muxing mode : DVD-Video
Duration : 14mn 49s
Bit rate mode : Constant
Bit rate : 448 Kbps
Channel(s) : 6 channels
Channel positions : Front: L C R, Side: L R, LFE
Sampling rate : 48.0 KHz
Bit depth : 16 bits
Compression mode : Lossy
Stream size : 47.5 MiB (5%)

Audio #2
ID : 189 (0xBD)-129 (0x81)
Format : AC-3
Format/Info : Audio Coding 3
Mode extension : CM (complete main)
Format settings, Endianness : Big
Muxing mode : DVD-Video
Duration : 14mn 49s
Bit rate mode : Constant
Bit rate : 448 Kbps
Channel(s) : 6 channels
Channel positions : Front: L C R, Side: L R, LFE
Sampling rate : 48.0 KHz
Bit depth : 16 bits
Compression mode : Lossy
Stream size : 47.5 MiB (5%)

Audio #3
ID : 189 (0xBD)-130 (0x82)
Format : AC-3
Format/Info : Audio Coding 3
Mode extension : CM (complete main)
Format settings, Endianness : Big
Muxing mode : DVD-Video
Duration : 14mn 49s
Bit rate mode : Constant
Bit rate : 448 Kbps
Channel(s) : 6 channels
Channel positions : Front: L C R, Side: L R, LFE
Sampling rate : 48.0 KHz
Bit depth : 16 bits
Compression mode : Lossy
Stream size : 47.5 MiB (5%)

Audio #4
ID : 189 (0xBD)-131 (0x83)
Format : AC-3
Format/Info : Audio Coding 3
Mode extension : CM (complete main)
Format settings, Endianness : Big
Muxing mode : DVD-Video
Duration : 14mn 49s
Bit rate mode : Constant
Bit rate : 448 Kbps
Channel(s) : 6 channels
Channel positions : Front: L C R, Side: L R, LFE
Sampling rate : 48.0 KHz
Bit depth : 16 bits
Compression mode : Lossy
Stream size : 47.5 MiB (5%)

Audio #5
ID : 189 (0xBD)-132 (0x84)
Format : AC-3
Format/Info : Audio Coding 3
Mode extension : CM (complete main)
Format settings, Endianness : Big
Muxing mode : DVD-Video
Duration : 14mn 49s
Bit rate mode : Constant
Bit rate : 448 Kbps
Channel(s) : 6 channels
Channel positions : Front: L C R, Side: L R, LFE
Sampling rate : 48.0 KHz
Bit depth : 16 bits
Compression mode : Lossy
Stream size : 47.5 MiB (5%)

Audio #6
ID : 189 (0xBD)-133 (0x85)
Format : AC-3
Format/Info : Audio Coding 3
Mode extension : CM (complete main)
Format settings, Endianness : Big
Muxing mode : DVD-Video
Duration : 14mn 49s
Bit rate mode : Constant
Bit rate : 192 Kbps
Channel(s) : 2 channels
Channel positions : Front: L R
Sampling rate : 48.0 KHz
Bit depth : 16 bits
Compression mode : Lossy
Stream size : 20.4 MiB (2%)

Text #1
ID : 189 (0xBD)-32 (0x20)
Format : RLE
Format/Info : Run-length encoding
Muxing mode : DVD-Video

Text #2
ID : 189 (0xBD)-33 (0x21)
Format : RLE
Format/Info : Run-length encoding
Muxing mode : DVD-Video

Menu



_________________
Проголосуй за трекер Открытый торрент трекер - RUS-MEDIA.ORG

Проголосуй Открытый торрент трекер - RUS-MEDIA.ORG



реклама партнёра


Вернуться к началу
 Профиль Отправить личное сообщение  
 
   Похожие торренты   Автор   Торрент   Размер 
В этой теме нет новых непрочитанных сообщений. Целуя девушек / Kiss the Girls [Триллер, драма, криминал, 1997] BDRip 1080p, Mvo+Dvo+Avo+Sub

salma3

35 | 3

16.13 ГБ

В этой теме нет новых непрочитанных сообщений. Целуя девушек / Kiss the Girls [триллер, драма, криминал, 1997] BDRip 720p, Mvo+Dvo+Avo+Sub

salma3

27 | 17

6.64 ГБ

В этой теме нет новых непрочитанных сообщений. Твин Пикс / Twin Peaks [S01-02] [Триллер, драма, криминал, детектив, 1990] BDRip 720p, 2Mvo+2Avo+Sub

salma3

38 | 46

104.54 ГБ

В этой теме нет новых непрочитанных сообщений. Нападение на 13-й участок / Assault on Precinct 13 [Боевик, триллер, криминал, детектив, 1976] Blu-Ray 1080p, 2Mvo+2Avo+Sub

salma3

9 | 16

31.52 ГБ

В этой теме нет новых непрочитанных сообщений. Нападение на 13-й участок / Assault on Precinct 13 [Боевик, триллер, драма, криминал, 1976] BDRip 1080p, 2Mvo+2Avo+Sub

salma3

6 | 2

10.1 ГБ

В этой теме нет новых непрочитанных сообщений. Дикая река / The River Wild [Триллер, криминал, приключения, боевик, 1994] BDRip 720p, 2Mvo+2Avo+Sub

salma3

27 | 3

7.17 ГБ

В этой теме нет новых непрочитанных сообщений. Поцелуй или убей / Kiss or Kill [триллер, драма, криминал, 1997] DVDRip, Dvo

salma3

16 | 4

1.46 ГБ


Начать новую тему Ответить на тему  [ 1 сообщение ] 




Для Мосгорсуда, Роскомнадзора и рекламодателей:: mosgorsud-torrent[собачка]yandex.ru