Торрент файл
скачать торрент магнет ссылка Добавлен: 13 янв 2015, 22:34
Размер: 7.06 ГБ
Сидеров: 13
Личеров: 7
Автор

СообщениеДобавлено: 13 янв 2015, 22:34 

Не в сети
Супермодератор
Аватара пользователя
Дата регистрации:
15 фев 2012, 16:44
Возраст: 28
Спасибо: 6593 / 2145
Сообщения: 44208
Год выхода: 1993
Жанр: боевик, триллер, приключения
Режиссер: Ренни Харлин
В ролях: Сильвестр Сталлоне, Джон Литгоу, Майкл Рукер, Джанин Тернер, Рекс Линн, Кэролайн Гудолл, Леон, Крэйг Фэйрбрасс, Грегори Скотт Камминс, Денис Форест

О фильме:
В горах после снежной лавины теряются 5 человек. На их поиски отправляется один из лучших альпинистов и горных проводников — Гейб Уокер. Неожиданно он понимает, что его специально заманили в горы для совершенно другого дела.

Также становится ясно, что Гейб станет нежелательным свидетелем, от которого без раздумья «избавятся». Но свою жизнь он терять так просто не собирается и объявляет безжалостную войну банде вооруженных до зубов боевиков под предводительством международного террориста Эрика Куалена…



лицам до 17 лет обязательно присутствие взрослого

Страна: Италия, Франция, США
Студия: Canal+ [fr], Carolco Pictures Inc.
Продолжительность: 108 мин. / 01:48
Перевод: профессиональный (двухголосый, закадровый)
Дополнительно: Спецэффекты; Удаленные сцены; Фотогалерея; Фильмографии; Анонсы

Файл
Кодек: MPEG2
Качество: DVD9
Видео: PAL 16:9 (720x576@1024x576) VBR 7486 Kbps, 25.000 fps
Звук: Dolby AC3, 6 ch, 48.0 KHz, 448 Kbps (русский, английский)
Субтитры: русские

General
Complete name : E:Skalolaz.1993.DVD-9VIDEO_TSVTS_10_1.VOB
Format : MPEG-PS
File size : 1 024 MiB
Duration : 16mn 44s
Overall bit rate mode : Variable
Overall bit rate : 8 552 Kbps

Video
ID : 224 (0xE0)
Format : MPEG Video
Format version : Version 2
Format profile : Main@Main
Format settings, BVOP : Yes
Format settings, Matrix : Custom
Format settings, GOP : Variable
Format settings, picture struc : Frame
Duration : 16mn 44s
Bit rate mode : Variable
Bit rate : 7 486 Kbps
Maximum bit rate : 8 200 Kbps
Width : 720 pixels
Height : 576 pixels
Display aspect ratio : 16:9
Frame rate : 25.000 fps
Standard : PAL
Color space : YUV
Chroma subsampling : 4:2:0
Bit depth : 8 bits
Scan type : Interlaced
Scan order : Top Field First
Compression mode : Lossy
Bits/(Pixel*Frame) : 0.722
Time code of first frame : 10:00:01:18
Time code source : Group of pictures header
Stream size : 896 MiB (88%)

Audio #1
ID : 189 (0xBD)-128 (0x80)
Format : AC-3
Format/Info : Audio Coding 3
Mode extension : CM (complete main)
Format settings, Endianness : Big
Muxing mode : DVD-Video
Duration : 16mn 43s
Bit rate mode : Constant
Bit rate : 448 Kbps
Channel(s) : 6 channels
Channel positions : Front: L C R, Side: L R, LFE
Sampling rate : 48.0 KHz
Bit depth : 16 bits
Compression mode : Lossy
Stream size : 53.6 MiB (5%)

Audio #2
ID : 189 (0xBD)-129 (0x81)
Format : AC-3
Format/Info : Audio Coding 3
Mode extension : CM (complete main)
Format settings, Endianness : Big
Muxing mode : DVD-Video
Duration : 16mn 43s
Bit rate mode : Constant
Bit rate : 448 Kbps
Channel(s) : 6 channels
Channel positions : Front: L C R, Side: L R, LFE
Sampling rate : 48.0 KHz
Bit depth : 16 bits
Compression mode : Lossy
Stream size : 53.6 MiB (5%)

Text
ID : 189 (0xBD)-32 (0x20)
Format : RLE
Format/Info : Run-length encoding
Muxing mode : DVD-Video

Menu


_________________
Проголосуй за трекер Открытый торрент трекер - RUS-MEDIA.ORG

Проголосуй Открытый торрент трекер - RUS-MEDIA.ORG



реклама партнёра


Вернуться к началу
 Профиль Отправить личное сообщение  
 
   Похожие торренты   Автор   Торрент   Размер 
В этой теме нет новых непрочитанных сообщений. Скалолаз / Cliffhanger [боевик, триллер, приключения, 1993] HDRip, Dvo [R5 Тwister]

salma3

168 | 12

1.45 ГБ

В этой теме нет новых непрочитанных сообщений. Скалолаз / Cliffhanger [боевик, триллер, приключения, 1993] BDRip 1080p, 4Dvo+2Mvo+5Avo+Sub

salma3

28 | 7

10.53 ГБ

В этой теме нет новых непрочитанных сообщений. Терминатор 2: Судный день / Terminator 2: Judgment Day [Фантастика, боевик, триллер, 1991] HDRip, Avo [Режиссерская версия]

salma3

56 | 82

2.19 ГБ

В этой теме нет новых непрочитанных сообщений. Трудная мишень / Hard Target [боевик, триллер, 1993] BDRip, Dub [Расширенная версия]

salma3

97 | 28

1.47 ГБ

В этой теме нет новых непрочитанных сообщений. Сицилиец / The Sicilian [боевик, драма, криминал, 1987] BDRip 1080p, Mvo [Режиссерская версия]

salma3

42 | 29

24.27 ГБ

В этой теме нет новых непрочитанных сообщений. Остаться в живых / Stay Alive [Ужасы, триллер, 2006] DVDRip-AVC, Mvo [Режиссерская версия]

salma3

110 | 48

2.41 ГБ

В этой теме нет новых непрочитанных сообщений. Мистер и миссис Смит / Mr. and Mrs. Smith [Боевик, комедия, мелодрама, 2005] BDRemux 1080p, Dub [Режиссерская версия]

salma3

16 | 9

32.45 ГБ


Начать новую тему Ответить на тему  [ 1 сообщение ] 




Для Мосгорсуда, Роскомнадзора и рекламодателей:: mosgorsud-torrent[собачка]yandex.ru