Торрент файл
скачать торрент магнет ссылка Добавлен: 13 янв 2015, 13:13
Размер: 4.91 ГБ
Сидеров: 18
Личеров: 6
Автор

СообщениеДобавлено: 13 янв 2015, 13:13 

Не в сети
Супермодератор
Аватара пользователя
Дата регистрации:
15 фев 2012, 16:44
Возраст: 27
Спасибо: 5135 / 2089
Сообщения: 17406
Год выхода: 1995
Жанр: боевик, триллер, драма
Режиссер: Майкл Бэй

В ролях: Уилл Смит, Мартин Лоуренс, Теа Леони, Чеки Карио, Джо Пантольяно, Марг Хельгенбергер, Нестор Серрано, Хулио Оскар Мечосо, Тереза Рэндл, Саверио Гуэрра

О фильме:
Они — полная противоположность друг друга. Один из них — примерный семьянин и не имеет состояния, другой богат и пользуется всеми благами холостяцкой жизни. Помимо дружбы их объединяет работа в полиции.

Их новое задание — поймать жестокого преступника, укравшего наркотики с секретного склада, а также спасти девушку, которая случайно оказалась на его пути. Но для этого друзьям придется поменяться местами…




лицам до 17 лет обязательно присутствие взрослого

Страна: США
Студия: Don Simpson/Jerry Bruckheimer Films
Продолжительность: 118 мин. / 01:58
Перевод 1: профессиональный (многоголосый, закадровый)
Перевод 2: полное дублирование

Файл
Кодек: MPEG2
Качество: DVD9
Видео: PAL 16:9 (720x576@1024x576) VBR 5324 Kbps, 25.000 fps
Аудио 1: Dolby AC3, 6 ch, 48.0 KHz, 384 Кbps (английский)
Аудио 2: Dolby AC3, 6 ch, 48.0 KHz, 384 Кbps (дублирование)
Аудио 3: Dolby AC3, 2 ch, 48.0 KHz, 192 Кbps (многоголосый)
Субтитры: русские, английские

General
Complete name : E:Plohie.Parni.1995.DVD-9VIDEO_TSVTS_01_1.VOB
Format : MPEG-PS
File size : 1 024 MiB
Duration : 22mn 19s
Overall bit rate mode : Variable
Overall bit rate : 6 411 Kbps

Video
ID : 224 (0xE0)
Format : MPEG Video
Format version : Version 2
Format profile : Main@Main
Format settings, BVOP : Yes
Format settings, Matrix : Custom
Format settings, GOP : M=3, N=12
Duration : 22mn 19s
Bit rate mode : Variable
Bit rate : 5 324 Kbps
Maximum bit rate : 9 800 Kbps
Width : 720 pixels
Height : 576 pixels
Display aspect ratio : 16:9
Frame rate : 25.000 fps
Standard : PAL
Color space : YUV
Chroma subsampling : 4:2:0
Bit depth : 8 bits
Scan type : Progressive
Scan order : Top Field First
Compression mode : Lossy
Bits/(Pixel*Frame) : 0.513
Stream size : 850 MiB (83%)

Audio #1
ID : 189 (0xBD)-128 (0x80)
Format : AC-3
Format/Info : Audio Coding 3
Format profile : Dolby Digital
Mode extension : CM (complete main)
Format settings, Endianness : Big
Muxing mode : DVD-Video
Duration : 22mn 19s
Bit rate mode : Constant
Bit rate : 192 Kbps
Channel(s) : 2 channels
Channel positions : Front: L R
Sampling rate : 48.0 KHz
Bit depth : 16 bits
Compression mode : Lossy
Stream size : 30.7 MiB (3%)

Audio #2
ID : 189 (0xBD)-129 (0x81)
Format : AC-3
Format/Info : Audio Coding 3
Mode extension : CM (complete main)
Format settings, Endianness : Big
Muxing mode : DVD-Video
Duration : 22mn 19s
Bit rate mode : Constant
Bit rate : 384 Kbps
Channel(s) : 6 channels
Channel positions : Front: L C R, Side: L R, LFE
Sampling rate : 48.0 KHz
Bit depth : 16 bits
Compression mode : Lossy
Stream size : 61.3 MiB (6%)

Audio #3
ID : 189 (0xBD)-130 (0x82)
Format : AC-3
Format/Info : Audio Coding 3
Mode extension : CM (complete main)
Format settings, Endianness : Big
Muxing mode : DVD-Video
Duration : 22mn 19s
Bit rate mode : Constant
Bit rate : 384 Kbps
Channel(s) : 6 channels
Channel positions : Front: L C R, Side: L R, LFE
Sampling rate : 48.0 KHz
Bit depth : 16 bits
Compression mode : Lossy
Stream size : 61.3 MiB (6%)

Text #1
ID : 189 (0xBD)-32 (0x20)
Format : RLE
Format/Info : Run-length encoding
Muxing mode : DVD-Video
Duration : 22mn 17s

Text #2
ID : 189 (0xBD)-33 (0x21)
Format : RLE
Format/Info : Run-length encoding
Muxing mode : DVD-Video
Duration : 22mn 17s

Menu


_________________



реклама партнёра


Вернуться к началу
 Профиль Отправить личное сообщение  
 
   Похожие торренты   Автор   Торрент   Размер 
В этой теме нет новых непрочитанных сообщений. Плохие парни 2 / Bad Boys II [боевик, триллер, комедия, 2003] DVD9, Dub+Sub

salma3

23 | 8

5.66 ГБ

В этой теме нет новых непрочитанных сообщений. Плохие парни / Bad Boys [Комедия, боевик, 1995] BDRip 1080p, Dub+Mvo+Avo+Sub

salma3

61 | 12

12.94 ГБ

В этой теме нет новых непрочитанных сообщений. Плохие парни 2 / Bad Boys II [боевик, триллер, комедия, криминал, 2003] BDRip 720p, Dub+Sub

salma3

1 | 3

16.94 ГБ

В этой теме нет новых непрочитанных сообщений. Плохие парни 2 / Bad Boys II [Боевик, Приключения, Комедия, 2003] HDRip, Avo

salma3

52 | 2

2.19 ГБ

В этой теме нет новых непрочитанных сообщений. Плохие парни 2 / Bad Boys II [Боевик, криминал, комедия, 2003] BDRip-AVC, Dub+Mvo+Avo+Sub

salma3

34 | 5

4.54 ГБ

В этой теме нет новых непрочитанных сообщений. Плохие мальчики / Bad Boys [ Триллер, драма, криминал, 1983] BDRemux 1080p, Mvo+Dvo+Sub

salma3

13 | 6

18.43 ГБ

В этой теме нет новых непрочитанных сообщений. Старые, добрые парни / The Good Old Boys [приключения, вестерн, 1995] DVDRip, Dvo+Avo

salma3

32 | 4

1.45 ГБ


Начать новую тему Ответить на тему  [ 1 сообщение ] 




Для Мосгорсуда, Роскомнадзора и рекламодателей:: mosgorsud-torrent[собачка]yandex.ru