Торрент файл
скачать торрент магнет ссылка Добавлен: 11 янв 2015, 22:54
Размер: 4.35 ГБ
Сидеров: 15
Личеров: 11
Автор

СообщениеДобавлено: 11 янв 2015, 22:54 

Не в сети
Супермодератор
Аватара пользователя
Дата регистрации:
15 фев 2012, 16:44
Возраст: 28
Спасибо: 6577 / 2143
Сообщения: 43865
Год выхода: 2011
Жанр: Триллер, боевик, ужасы
Режиссер: Козимо Алема

В ролях: Стефани Чапман-Бакер, Сэм Кохан, Валене Кейн, Нейл Линпов, Лутс Майкл, Эндрю Миллс, Моника Мирга, Майкл Скерми, Том Стэнли, Дэниэл Вивиан

О фильме:Фильм повествует о группе друзей, отправившихся в национальный парк для игры в страйкбол. Однако, вскоре после того, как они находят заброшенный дом, скрывающий жуткие секреты, за ними начинают охотиться трое убийц — отставных военных, жаждущих крови. В результате, главные герои вынуждены бороться за собственные жизни — военные игры становятся реальными.



Страна: Италия
Студия: The Mob, T.M. 2005, Frame by Frame
Продолжительность: 01:37:52
Перевод: Профессиональный многоголосый
Файл
Кодек: MPEG-2
Качество: DVD-5
Видео: MPEG2, PAL 16:9 (720x576) VBR, 24,000 кадр/с
Звук: Русский / Английский DD 2.0(192Kbps)
Title:
Size: 4.35 Gb ( 4 563 064 KBytes ) - DVD-5
Enabled regions: 1, 2, 3, 4, 5, 6, 7, 8

VTS_01 :
Play Length: 01:37:52
Video: PAL 16:9 (720x576) VBR, Auto Pan&Scan
Audio:
Russian (Dolby AC3, 2 ch)
English (Dolby AC3, 2 ch)

Menu Video:
PAL 4:3 (704x576) VBR
Menu English Language Unit :
Root Menu
Общее
Полное имя : D:ААА2Военные игрыVIDEO_TSVTS_01_1.VOB
Формат : MPEG-PS
Размер файла : 1000 Мбайт
Продолжительность : 20 м.
Режим общего битрейта : Переменный
Общий поток : 6801 Кбит/сек

Видео
Идентификатор : 224 (0xE0)
Формат : MPEG Video
Версия формата : Version 2
Профиль формата : Main@Main
Параметр BVOP формата : Да
Параметр матрицы формата : По умолчанию
Параметр GOP формата : M=3, N=12
Продолжительность : 20 м.
Вид битрейта : Переменный
Битрейт : 6282 Кбит/сек
Максимальный битрейт : 8816 Кбит/сек
Ширина : 720 пикселей
Высота : 576 пикселей
Соотношение сторон : 16:9
Частота кадров : 24,000 кадра/сек
Стандарт вещания : PAL
Цветовое пространство : YUV
Субдискретизация насыщенности : 4:2:0
Битовая глубина : 8 бит
Тип развёртки : Прогрессивная
Порядок развёртки : 2:2:2:2:2:2:2:2:2:2:2:3 Pulldown
Метод сжатия : С потерями
Бит/(Пиксели*Кадры) : 0.631
TimeCode_FirstFrame : 00:00:00:00
TimeCode_Source : Group of pictures header
Размер потока : 924 Мбайт (92%)

Аудио #1
Идентификатор : 189 (0xBD)-128 (0x80)
Формат : AC-3
Формат/Информация : Audio Coding 3
Расширение режима : CM (complete main)
Параметр Endianness формата : Big
Режим смешивания : DVD-Video
Продолжительность : 20 м.
Вид битрейта : Постоянный
Битрейт : 192 Кбит/сек
Каналы : 2 канала
Расположение каналов : Front: L R
Частота : 48,0 КГц
Битовая глубина : 16 бит
Метод сжатия : С потерями
Размер потока : 28,2 Мбайт (3%)

Аудио #2
Идентификатор : 189 (0xBD)-129 (0x81)
Формат : AC-3
Формат/Информация : Audio Coding 3
Расширение режима : CM (complete main)
Параметр Endianness формата : Big
Режим смешивания : DVD-Video
Продолжительность : 20 м.
Вид битрейта : Постоянный
Битрейт : 192 Кбит/сек
Каналы : 2 канала
Расположение каналов : Front: L R
Частота : 48,0 КГц
Битовая глубина : 16 бит
Метод сжатия : С потерями
Размер потока : 28,2 Мбайт (3%)

Меню


Релиз:


_________________
Проголосуй за трекер Открытый торрент трекер - RUS-MEDIA.ORG

Проголосуй Открытый торрент трекер - RUS-MEDIA.ORG



реклама партнёра


Вернуться к началу
 Профиль Отправить личное сообщение  
 
   Похожие торренты   Автор   Торрент   Размер 
В этой теме нет новых непрочитанных сообщений. Военные игры / War Games: At the End of the Day [триллер, ужасы, боевик, 2011] HDRip, Mvo [Лицензия]

salma3

29 | 12

1.46 ГБ

В этой теме нет новых непрочитанных сообщений. Правила игры (Холостяцкие игры) / Bachelor Games [ужасы, боевик, триллер, комедия, приключения, 2016] HDRip, Avo

salma3

199 | 9

1.28 ГБ

В этой теме нет новых непрочитанных сообщений. Дорожные игры / Road Games [ужасы, триллер, 2015] HDRip, Avo

salma3

24 | 2

1.27 ГБ

В этой теме нет новых непрочитанных сообщений. Кровавые игры / Blood Games [Боевик, Триллер, 1990] HDTV 1080i, Dvo

salma3

77 | 43

4.29 ГБ

В этой теме нет новых непрочитанных сообщений. Игры патриотов / Patriot Games [боевик, триллер, драма, криминал, 1992] BDRip 720p, 2Mvo+Avo+Dvo

salma3

23 | 6

11.71 ГБ

В этой теме нет новых непрочитанных сообщений. Голодные игры: Сойка-пересмешница. Часть I / The Hunger Games: Mockingjay - Part 1 [фантастика, боевик, триллер, 2014] UHD BDRemux 2160p, Dub [4K] [Лицензия]

salma3

0 | 4

76.91 ГБ

В этой теме нет новых непрочитанных сообщений. Дорожные игры / Road Games [триллер, 2015] WEB-DL 720p, Avo

salma3

244 | 15

3.13 ГБ


Начать новую тему Ответить на тему  [ 1 сообщение ] 




Для Мосгорсуда, Роскомнадзора и рекламодателей:: mosgorsud-torrent[собачка]yandex.ru