Торрент файл
скачать торрент магнет ссылка Добавлен: 31 дек 2014, 21:02
Размер: 4.97 ГБ
Сидеров: 5
Личеров: 5
Статус: (salma3)
Автор

СообщениеДобавлено: 31 дек 2014, 21:02 

Не в сети
Супермодератор
Аватара пользователя
Дата регистрации:
15 фев 2012, 16:44
Возраст: 27
Спасибо: 5143 / 2090
Сообщения: 17495
Год выхода: 1993
Жанр: боевик, триллер, приключения
Режиссер: Джонатан Мостоу
В ролях: Дольф Лундгрен, Джордж Сигал, Кристиан Альфонсо, Джеффри Льюис, Бо Старр, Мишель Филлипс, Мэтт Батталья, Берт Ремсен, Майкл Пол Чан, Ханди Александер, Маркус Браун, Ник Чинланд, Кен Фори, Эдвард Стоун, Ронди Рид, Анита Брабэц, Джейсон Росс-Эйзикив, Чарли Холлидэй, Джимми Вудард, Тони Эппер, Кен Блейзер

О фильме: Автогонщик Сэнти обвинен в убийстве полицейского. Это дело рук продажного копа Сэверенса, работающего на мафию. Сэнти получил серьезное ранение, но выжил. Его осудили на пожизненное заключение. Охранники должны были застрелить его якобы при попытке к бегству, но ему удалось скрыться. Спасаясь от преследователей, он берет в заложницы красотку, не подозревая, что она — помощник шерифа. Рита — девица не из слабых. Она делает попытку сбежать, но ей это не удается. Сэнти сам отпускает ее, когда добирается до ранчо своего врага. Но тут уж Рита решает докопаться до сути происходящего...



Страна: США
Студия: Epic Productions, Horned Toad Productions, Stone Group Pictures, Vision International, Zilex N.V.
Продолжительность: 01:46:32
Перевод: Авторский (Гаврилов, Горчаков, Кузнецов, Дольский, Пронин, Живов)
Файл
Кодек: MPEG-2
Качество: DVD-9
Видео: MPEG2, NTSC 4:3 (720x480) VBR, 29,970 кадр/с
Звук: Русский / Английский DD 2.0(192Kbps)
Title:
Size: 4.97 Gb ( 5 215 446 KBytes ) - DVD-9
Enabled regions: 1, 2, 3, 4, 5, 6, 7, 8

VTS_01 :
Play Length: 01:46:32
Video: NTSC 4:3 (704x480) VBR
Audio:
Russian (Dolby AC3, 2 ch)
Russian (Dolby AC3, 2 ch)
Russian (Dolby AC3, 2 ch)
Russian (Dolby AC3, 2 ch)
Russian (Dolby AC3, 2 ch)
Russian (Dolby AC3, 2 ch)
English (Dolby AC3, 2 ch)

Menu Video:
NTSC 4:3 (704x480) VBR
Menu English Language Unit :
Root Menu
Общее
Полное имя : D:ААА2ДЕРЕВО ДЖОШУАVIDEO_TSVTS_01_1.VOB
Формат : MPEG-PS
Размер файла : 1000 Мбайт
Продолжительность : 20 м.
Режим общего битрейта : Переменный
Общий поток : 6894 Кбит/сек

Видео
Идентификатор : 224 (0xE0)
Формат : MPEG Video
Версия формата : Version 2
Профиль формата : Main@Main
Параметр BVOP формата : Да
Параметр матрицы формата : Выборочная
Параметр GOP формата : M=3, N=12
Продолжительность : 20 м.
Вид битрейта : Переменный
Битрейт : 5445 Кбит/сек
Ширина : 720 пикселей
Высота : 480 пикселей
Соотношение сторон : 4:3
Частота кадров : 29,970 кадров/сек
Стандарт вещания : NTSC
Цветовое пространство : YUV
Субдискретизация насыщенности : 4:2:0
Битовая глубина : 8 бит
Метод сжатия : С потерями
Бит/(Пиксели*Кадры) : 0.526
TimeCode_FirstFrame : 00:00:00:00
TimeCode_Source : Group of pictures header
Размер потока : 790 Мбайт (79%)

Аудио #1
Идентификатор : 189 (0xBD)-128 (0x80)
Формат : AC-3
Формат/Информация : Audio Coding 3
Расширение режима : CM (complete main)
Параметр Endianness формата : Big
Режим смешивания : DVD-Video
Продолжительность : 20 м.
Вид битрейта : Постоянный
Битрейт : 192 Кбит/сек
Каналы : 2 канала
Расположение каналов : Front: L R
Частота : 48,0 КГц
Битовая глубина : 16 бит
Метод сжатия : С потерями
Задержка видео : -66 мс.
Размер потока : 27,9 Мбайт (3%)

Аудио #2
Идентификатор : 189 (0xBD)-129 (0x81)
Формат : AC-3
Формат/Информация : Audio Coding 3
Расширение режима : CM (complete main)
Параметр Endianness формата : Big
Режим смешивания : DVD-Video
Продолжительность : 20 м.
Вид битрейта : Постоянный
Битрейт : 192 Кбит/сек
Каналы : 2 канала
Расположение каналов : Front: L R
Частота : 48,0 КГц
Битовая глубина : 16 бит
Метод сжатия : С потерями
Задержка видео : -66 мс.
Размер потока : 27,9 Мбайт (3%)

Аудио #3
Идентификатор : 189 (0xBD)-130 (0x82)
Формат : AC-3
Формат/Информация : Audio Coding 3
Профиль формата : Dolby Digital
Расширение режима : CM (complete main)
Параметр Endianness формата : Big
Режим смешивания : DVD-Video
Продолжительность : 20 м.
Вид битрейта : Постоянный
Битрейт : 192 Кбит/сек
Каналы : 2 канала
Расположение каналов : Front: L R
Частота : 48,0 КГц
Битовая глубина : 16 бит
Метод сжатия : С потерями
Задержка видео : -66 мс.
Размер потока : 27,9 Мбайт (3%)

Аудио #4
Идентификатор : 189 (0xBD)-131 (0x83)
Формат : AC-3
Формат/Информация : Audio Coding 3
Расширение режима : CM (complete main)
Параметр Endianness формата : Big
Режим смешивания : DVD-Video
Продолжительность : 20 м.
Вид битрейта : Постоянный
Битрейт : 192 Кбит/сек
Каналы : 2 канала
Расположение каналов : Front: L R
Частота : 48,0 КГц
Битовая глубина : 16 бит
Метод сжатия : С потерями
Задержка видео : -66 мс.
Размер потока : 27,9 Мбайт (3%)

Аудио #5
Идентификатор : 189 (0xBD)-132 (0x84)
Формат : AC-3
Формат/Информация : Audio Coding 3
Расширение режима : CM (complete main)
Параметр Endianness формата : Big
Режим смешивания : DVD-Video
Продолжительность : 20 м.
Вид битрейта : Постоянный
Битрейт : 160 Кбит/сек
Каналы : 2 канала
Расположение каналов : Front: L R
Частота : 48,0 КГц
Битовая глубина : 16 бит
Метод сжатия : С потерями
Задержка видео : -66 мс.
Размер потока : 23,2 Мбайт (2%)

Аудио #6
Идентификатор : 189 (0xBD)-133 (0x85)
Формат : AC-3
Формат/Информация : Audio Coding 3
Расширение режима : CM (complete main)
Параметр Endianness формата : Big
Режим смешивания : DVD-Video
Продолжительность : 20 м.
Вид битрейта : Постоянный
Битрейт : 192 Кбит/сек
Каналы : 2 канала
Расположение каналов : Front: L R
Частота : 48,0 КГц
Битовая глубина : 16 бит
Метод сжатия : С потерями
Задержка видео : -66 мс.
Размер потока : 27,9 Мбайт (3%)

Аудио #7
Идентификатор : 189 (0xBD)-134 (0x86)
Формат : AC-3
Формат/Информация : Audio Coding 3
Профиль формата : Dolby Digital
Расширение режима : CM (complete main)
Параметр Endianness формата : Big
Режим смешивания : DVD-Video
Продолжительность : 20 м.
Вид битрейта : Постоянный
Битрейт : 192 Кбит/сек
Каналы : 2 канала
Расположение каналов : Front: L R
Частота : 48,0 КГц
Битовая глубина : 16 бит
Метод сжатия : С потерями
Задержка видео : -66 мс.
Размер потока : 27,9 Мбайт (3%)

Текст
Идентификатор : 224 (0xE0)-CC3
Формат : EIA-608
Режим смешивания, доп. информация : Muxed in Video #1
Вид битрейта : Постоянный
Размер потока : 0,00 байт (0%)

Меню


Релиз:


_________________



реклама партнёра


Вернуться к началу
 Профиль Отправить личное сообщение  
 
   Похожие торренты   Автор   Торрент   Размер 
В этой теме нет новых непрочитанных сообщений. Дерево Джошуа / Joshua Tree [боевик, триллер, драма, 1993] BDRip, Dub

salma3

21 | 1

1.45 ГБ

В этой теме нет новых непрочитанных сообщений. Вишневое дерево / Cherry Tree [ужасы, 2015] HDRip, Dvo

salma3

1029 | 103

1.37 ГБ

В этой теме нет новых непрочитанных сообщений. Вишневое дерево / Cherry Tree [ужасы, 2015] BDRip 720p, Dvo

salma3

258 | 50

4.24 ГБ

В этой теме нет новых непрочитанных сообщений. Joshua (Joshua Perahia) - Resurrection [2012,Hard Rock,Heavy Metal,MP3]

PriZraK

0 | 1

150.56 МБ

В этой теме нет новых непрочитанных сообщений. Фантастическая четверка / Fantastic Four (Джошуа Транк) [фантастика, боевик, приключения, 2015] DVD5, Dub+Sub [Лицензия]

Dracon

147 | 16

4.38 ГБ

В этой теме нет новых непрочитанных сообщений. Фантастическая четверка / Fantastic Four (Джошуа Транк) [фантастика, боевик, приключения, 2015] BDRemux 1080p, Dub+Sub [Лицензия]

Dracon

239 | 35

25.19 ГБ

В этой теме нет новых непрочитанных сообщений. Фантастическая четверка / Fantastic Four (Джошуа Транк) [фантастика, боевик, приключения, 2015] HDRip, dub [Чистый звук]

Dracon

1580 | 10

1.45 ГБ


Начать новую тему Ответить на тему  [ 1 сообщение ] 




Для Мосгорсуда, Роскомнадзора и рекламодателей:: mosgorsud-torrent[собачка]yandex.ru