Торрент файл
скачать торрент магнет ссылка Добавлен: 26 дек 2014, 19:09
Размер: 4.36 ГБ
Сидеров: 16
Личеров: 5
Автор

СообщениеДобавлено: 26 дек 2014, 19:09 

Не в сети
Супермодератор
Аватара пользователя
Дата регистрации:
15 фев 2012, 16:44
Возраст: 28
Спасибо: 6594 / 2145
Сообщения: 44279
Год выхода: 2001
Жанр: фантастика, боевик, триллер
Режиссер: Джеймс Вонг
В ролях: Джет Ли, Джейсон Стэйтем, Карла Гуджино, Делрой Линдо, Джеймс Моррисон, Дилан Бруно, Ричард Стейнметц, Стив Рэнкин, Такер Смоллвуд, Харриет Сэнсом Харрис

О фильме:
Что делать, если твой мир рушится, когда в него вторгается безжалостный пришелец из параллельных миров? Стремясь стать сверхчеловеком, агент Межпространственного Бюро Расследований Юло совершает головокружительное сафари по параллельным мирам, охотясь за своими двойниками.

Силы его растут с каждой новой жертвой, их жизненная энергия аккумулируется в нем, наделяя его невероятными способностями. Никто не знает, что случится с хрупким равновесием вселенных, если Юло достигнет своей цели — уничтожить всех двойников. Его мечта уже почти становится реальностью, когда на пути Юло становится Гэйб — полицейский из Лос-Анджелеса…



детям до 13 лет просмотр не желателен

Страна: США
Студия: Hard Eight Pictures, Revolution Studios
Продолжительность: 87 мин. / 01:27
Перевод 1: полное дублирование
Перевод 2: авторский (одноголосый, закадровый)

Файл
Кодек: MPEG2
Качество: DVD5
Видео: NTSC 16:9 (720x480@853x480) VBR 5575 Kbps, 23.976 fps
Аудио 1: Dolby AC3, 6 ch, 48.0 KHz, 448 Kbps (английский)
Аудио 2: Dolby AC3, 6 ch, 48.0 KHz, 448 Kbps (русский)
Аудио 3: Dolby AC3, 6 ch, 48.0 KHz, 384 Kbps (Ю.Живов)
Субтитры: русские, английские

General
Complete name : E:One_DVD5VIDEO_TSVTS_03_1.VOB
Format : MPEG-PS
File size : 1 024 MiB
Duration : 20mn 28s
Overall bit rate mode : Variable
Overall bit rate : 6 994 Kbps

Video
ID : 224 (0xE0)
Format : MPEG Video
Format version : Version 2
Format profile : Main@Main
Format settings, BVOP : Yes
Format settings, Matrix : Custom
Format settings, GOP : M=3, N=12
Duration : 20mn 28s
Bit rate mode : Variable
Bit rate : 5 575 Kbps
Maximum bit rate : 8 000 Kbps
Width : 720 pixels
Height : 480 pixels
Display aspect ratio : 16:9
Frame rate : 23.976 fps
Standard : NTSC
Color space : YUV
Chroma subsampling : 4:2:0
Bit depth : 8 bits
Scan type : Progressive
Scan order : 2:3 Pulldown
Compression mode : Lossy
Bits/(Pixel*Frame) : 0.673
Time code of first frame : 00:00:00:00
Time code source : Group of pictures header
Stream size : 816 MiB (80%)

Audio #1
ID : 189 (0xBD)-128 (0x80)
Format : AC-3
Format/Info : Audio Coding 3
Mode extension : CM (complete main)
Format settings, Endianness : Big
Muxing mode : DVD-Video
Duration : 20mn 27s
Bit rate mode : Constant
Bit rate : 384 Kbps
Channel(s) : 6 channels
Channel positions : Front: L C R, Side: L R, LFE
Sampling rate : 48.0 KHz
Bit depth : 16 bits
Compression mode : Lossy
Stream size : 56.2 MiB (5%)

Audio #2
ID : 189 (0xBD)-129 (0x81)
Format : AC-3
Format/Info : Audio Coding 3
Mode extension : CM (complete main)
Format settings, Endianness : Big
Muxing mode : DVD-Video
Duration : 20mn 27s
Bit rate mode : Constant
Bit rate : 448 Kbps
Channel(s) : 6 channels
Channel positions : Front: L C R, Side: L R, LFE
Sampling rate : 48.0 KHz
Bit depth : 16 bits
Compression mode : Lossy
Stream size : 65.6 MiB (6%)

Audio #3
ID : 189 (0xBD)-130 (0x82)
Format : AC-3
Format/Info : Audio Coding 3
Mode extension : CM (complete main)
Format settings, Endianness : Big
Muxing mode : DVD-Video
Duration : 20mn 27s
Bit rate mode : Constant
Bit rate : 448 Kbps
Channel(s) : 6 channels
Channel positions : Front: L C R, Side: L R, LFE
Sampling rate : 48.0 KHz
Bit depth : 16 bits
Compression mode : Lossy
Stream size : 65.6 MiB (6%)

Menu


_________________
Проголосуй за трекер Открытый торрент трекер - RUS-MEDIA.ORG

Проголосуй Открытый торрент трекер - RUS-MEDIA.ORG



реклама партнёра


Вернуться к началу
 Профиль Отправить личное сообщение  
 
   Похожие торренты   Автор   Торрент   Размер 
В этой теме нет новых непрочитанных сообщений. Первый мститель: Противостояние / Captain America: Civil War [Фантастика, боевик, триллер, приключения, 2016] BDRip, Mvo [FocusStudio]

salma3

24 | 1

2.18 ГБ

В этой теме нет новых непрочитанных сообщений. Первый мститель: Противостояние / Captain America: Civil War [фантастика, боевик, триллер, приключения, 2016] BDRip 720p, Dub [iTunes]

marya111

2 | 4

6.05 ГБ

В этой теме нет новых непрочитанных сообщений. Первый мститель: Противостояние / Captain America: Civil War [фантастика, боевик, триллер, приключения, 2016] BDRip 1080p, Dub [iTunes]

marya111

317 | 13

11.33 ГБ

В этой теме нет новых непрочитанных сообщений. Первый мститель: Противостояние / Captain America: Civil War [фантастика, боевик, приключения, 2016] BDRip-AVC, Dub

salma3

31 | 18

2.18 ГБ

В этой теме нет новых непрочитанных сообщений. Первый мститель: Противостояние / Captain America: Civil War [фантастика, боевик, приключения, 2016] BDRip-AVC, Dub

salma3

162 | 25

2.82 ГБ

В этой теме нет новых непрочитанных сообщений. Первый мститель: Противостояние / Captain America: Civil War [фантастика, боевик, приключения, 2016] HDRip, Avo+Sub Гаврилов]

salma3

58 | 15

2.14 ГБ

В этой теме нет новых непрочитанных сообщений. Первый мститель: Противостояние / Captain America: Civil War [Фантастика, боевик, приключения, 2016] DVD9, Dub [Custom]

salma3

40 | 22

7.23 ГБ


Начать новую тему Ответить на тему  [ 1 сообщение ] 




Для Мосгорсуда, Роскомнадзора и рекламодателей:: mosgorsud-torrent[собачка]yandex.ru