Торрент файл
скачать торрент магнет ссылка Добавлен: 21 дек 2014, 21:28
Размер: 5.34 ГБ
Сидеров: 16
Личеров: 3
Автор

СообщениеДобавлено: 21 дек 2014, 21:28 

Не в сети
Супермодератор
Аватара пользователя
Дата регистрации:
15 фев 2012, 16:44
Возраст: 28
Спасибо: 6589 / 2145
Сообщения: 44145
Год выхода: 1999
Жанр: ужасы, триллер, драма, криминал, детектив
Режиссер: Рассел Малкэй
В ролях: Кристофер Ламберт, Лиленд Орсер, Роберт Джой, Барбара Тайсон, Рик Фокс, Дэвид Кроненберг, Джонатан Поттс, Питер МакНейл, Филип Уильямс, Джейн Иствуд

О фильме:
Детектив Джон Прудомм получает задание расследовать серию убийств, которые связаны тем, что маньяк — убийца отрезает у умирающих жертв то ногу, то руку, то голову. Не понимая мотивов этих отвратительных преступлений, полиция бессильно наблюдает, как маньяк собирает человеческое тело из кусков других.

Тем временем Прудомм находит убийцу. Его причастность к убийствам очевидна, но не доказана. После суда он с улыбкой выходит на свободу, чтобы продолжить свои кровавые деяния. Но теперь он осторожнее, и поймать его гораздо труднее…


лицам до 17 лет обязательно присутствие взрослого

Страна: США, Канада
Продолжительность: 108 мин. / 01:48
Перевод 1: профессиональный (двухголосый, закадровый)
Перевод 2: авторский (авторский, одноголосый)

Файл
Кодек: MPEG2
Качество: DVD9
Видео: PAL 16:9 (720x576@1024x576) VBR 5866 Kbps, 25.000 fps
Аудио 1: Dolby AC3, 6 ch, 48.0 KHz, 448 Kbps (Ю.Живов)
Аудио 2: Dolby AC3, 6 ch, 48.0 KHz, 448 Kbps (русский)
Аудио 3: Dolby AC3, 6 ch, 48.0 KHz, 448 Kbps (английский)
Субтитры: русские, английские

General
Complete name : E:Voskresheniye_DVD9VIDEO_TSVTS_02_1.VOB
Format : MPEG-PS
File size : 1 024 MiB
Duration : 19mn 27s
Overall bit rate mode : Variable
Overall bit rate : 7 356 Kbps

Video
ID : 224 (0xE0)
Format : MPEG Video
Format version : Version 2
Format profile : Main@Main
Format settings, BVOP : Yes
Format settings, Matrix : Default
Format settings, GOP : Variable
Format settings, picture struc : Frame
Duration : 19mn 27s
Bit rate mode : Variable
Bit rate : 5 866 Kbps
Width : 720 pixels
Height : 576 pixels
Display aspect ratio : 16:9
Frame rate : 25.000 fps
Standard : PAL
Color space : YUV
Chroma subsampling : 4:2:0
Bit depth : 8 bits
Scan type : Interlaced
Scan order : Top Field First
Compression mode : Lossy
Bits/(Pixel*Frame) : 0.566
Time code of first frame : 00:00:00:00
Time code source : Group of pictures header
Stream size : 817 MiB (80%)

Audio #1
ID : 189 (0xBD)-128 (0x80)
Format : AC-3
Format/Info : Audio Coding 3
Mode extension : CM (complete main)
Format settings, Endianness : Big
Muxing mode : DVD-Video
Duration : 19mn 27s
Bit rate mode : Constant
Bit rate : 448 Kbps
Channel(s) : 6 channels
Channel positions : Front: L C R, Side: L R, LFE
Sampling rate : 48.0 KHz
Bit depth : 16 bits
Compression mode : Lossy
Stream size : 62.3 MiB (6%)

Audio #2
ID : 189 (0xBD)-129 (0x81)
Format : AC-3
Format/Info : Audio Coding 3
Mode extension : CM (complete main)
Format settings, Endianness : Big
Muxing mode : DVD-Video
Duration : 19mn 27s
Bit rate mode : Constant
Bit rate : 448 Kbps
Channel(s) : 6 channels
Channel positions : Front: L C R, Side: L R, LFE
Sampling rate : 48.0 KHz
Bit depth : 16 bits
Compression mode : Lossy
Stream size : 62.3 MiB (6%)

Audio #3
ID : 189 (0xBD)-130 (0x82)
Format : AC-3
Format/Info : Audio Coding 3
Mode extension : CM (complete main)
Format settings, Endianness : Big
Muxing mode : DVD-Video
Duration : 19mn 27s
Bit rate mode : Constant
Bit rate : 448 Kbps
Channel(s) : 6 channels
Channel positions : Front: L C R, Side: L R, LFE
Sampling rate : 48.0 KHz
Bit depth : 16 bits
Compression mode : Lossy
Stream size : 62.3 MiB (6%)

Text #1
ID : 189 (0xBD)-32 (0x20)
Format : RLE
Format/Info : Run-length encoding
Muxing mode : DVD-Video
Duration : 19mn 26s
Delay relative to video : 720ms

Text #2
ID : 189 (0xBD)-33 (0x21)
Format : RLE
Format/Info : Run-length encoding
Muxing mode : DVD-Video
Duration : 19mn 26s
Delay relative to video : 720ms

Menu



_________________
Проголосуй за трекер Открытый торрент трекер - RUS-MEDIA.ORG

Проголосуй Открытый торрент трекер - RUS-MEDIA.ORG



реклама партнёра


Вернуться к началу
 Профиль Отправить личное сообщение  
 
   Похожие торренты   Автор   Торрент   Размер 
В этой теме нет новых непрочитанных сообщений. Воскрешение / Resurrection [ужасы, триллер, драма, криминал, детектив. 1999] DVDRip-AVC, Dvo+Avo+Sub

salma3

139 | 14

2.18 ГБ

В этой теме нет новых непрочитанных сообщений. Механик Воскрешение / Mechanic Resurrection [боевик, триллер, криминал, 2016] Blu-ray 1080p, Dub

salma3

27 | 26

18.8 ГБ

В этой теме нет новых непрочитанных сообщений. Механик: Воскрешение / Mechanic: Resurrection [Боевик, триллер, криминал, 2016] WEBRip, Mvo [КПК ]

marya111

463 | 20

335.13 МБ

В этой теме нет новых непрочитанных сообщений. Механик: Воскрешение / Mechanic: Resurrection [Боевик, триллер, криминал, 2016] BDRip, Mvo [FocusStudio]

salma3

276 | 44

1.45 ГБ

В этой теме нет новых непрочитанных сообщений. Механик: Воскрешение / Mechanic: Resurrection [боевик, триллер, криминал, 2016] BDRip, Dub+Sub [Лицензия]

salma3

472 | 162

1.46 ГБ

В этой теме нет новых непрочитанных сообщений. Механик: Воскрешение / Mechanic: Resurrection [боевик, триллер, криминал, 2016] HDRip, Dub+Sub [Лицензия]

salma3

227 | 54

746.68 МБ

В этой теме нет новых непрочитанных сообщений. Механик: Воскрешение / Mechanic: Resurrection [Боевик, триллер, криминал, 2016] BDRip, Avo [Гаврилов]

salma3

178 | 36

1.46 ГБ


Начать новую тему Ответить на тему  [ 1 сообщение ] 




Для Мосгорсуда, Роскомнадзора и рекламодателей:: mosgorsud-torrent[собачка]yandex.ru