Торрент файл
скачать торрент магнет ссылка Добавлен: 20 дек 2014, 12:56
Размер: 4.36 ГБ
Сидеров: 102
Личеров: 5
Автор

СообщениеДобавлено: 20 дек 2014, 12:56 

Не в сети
Зам. Админа
Аватара пользователя
Дата регистрации:
02 дек 2010, 12:39
Спасибо: 12461 / 214
Сообщения: 27968
Год выхода: 2014
Жанр: фантастика, триллер, приключения
Режиссер: Уэс Болл
В ролях: Дилан О’Брайен, Томас Сэнгстер, Кая Скоделарио, Уилл Поултер, Ки Хонг Ли, Блейк Купер, Амл Амин, Алекс Дж. Флорес, Джейкоб Латимор, Патришия Кларксон

О фильме:
Главный герой — подросток Томас, который просыпается в лифте, но ничего не помнит, кроме своего имени. Он оказывается среди 60 подростков, научившихся выживать в замкнутом пространстве. Раз в 30 дней прибывает новый мальчик. Группа ребят проживает в «Приюте» уже три года. Они кормятся тем, что удается вырастить на земле, и пытаются найти выход из лабиринта, окружающего их место жительства. Но однажды появляется девочка в состоянии комы…



детям до 13 лет просмотр не желателен

Страна: США, Великобритания, Канада
Студия: 20th Century Fox
Продолжительность: 113 мин. / 01:53
Перевод: полное дублирование

Кодек: MPEG2
Качество: DVD5 (сжатый)
Видео: PAL 16:9 (720x576@1024x576) VBR 5036 Kbps, 25.000 fps
Аудио 1: Dolby AC3, 6 ch, 48.0 KHz, 448 Kbps [английский]
Аудио 2: Dolby AC3, 6 ch, 48.0 KHz, 384 Kbps [русский]
Субтитры: русские, английские, датские, шведские, финские, суоми, норвежские, хинди, эстонские, латышские, литовские, украинские

Видео сжато на 9,8%
Удалены: предупреждающие надписи, доп. материалы, испанская и английская (комментарии) звуковые дорожки (в меню кнопки затёрты)
Меню: статичное, на русском языке, недействующие кнопки затерты и закрыты.
Обработка и сжатие: DVD ReMake Pro + DVD Rebuilder + CCE SP2 [7 проходов] + Работа с меню (Adobe PhotoShop и MuxMan).
General
Complete name : D:The Maze Runner (2014) DVD5VIDEO_TSVTS_04_1.VOB
Format : MPEG-PS
File size : 1 024 MiB
Duration : 23mn 54s
Overall bit rate mode : Variable
Overall bit rate : 5 987 Kbps

Video
ID : 224 (0xE0)
Format : MPEG Video
Format version : Version 2
Format profile : Main@Main
Format settings, BVOP : Yes
Format settings, Matrix : Custom
Format settings, GOP : Variable
Duration : 23mn 54s
Bit rate mode : Variable
Bit rate : 5 036 Kbps
Width : 720 pixels
Height : 576 pixels
Display aspect ratio : 16:9
Frame rate : 25.000 fps
Standard : PAL
Color space : YUV
Chroma subsampling : 4:2:0
Bit depth : 8 bits
Scan type : Progressive
Compression mode : Lossy
Bits/(Pixel*Frame) : 0.486
Time code of first frame : 00:00:00:00
Time code source : Group of pictures header
Stream size : 861 MiB (84%)

Audio #1
ID : 189 (0xBD)-128 (0x80)
Format : AC-3
Format/Info : Audio Coding 3
Mode extension : CM (complete main)
Format settings, Endianness : Big
Muxing mode : DVD-Video
Duration : 23mn 54s
Bit rate mode : Constant
Bit rate : 448 Kbps
Channel(s) : 6 channels
Channel positions : Front: L C R, Side: L R, LFE
Sampling rate : 48.0 KHz
Bit depth : 16 bits
Compression mode : Lossy
Stream size : 76.6 MiB (7%)

Audio #2
ID : 189 (0xBD)-130 (0x82)
Format : AC-3
Format/Info : Audio Coding 3
Mode extension : CM (complete main)
Format settings, Endianness : Big
Muxing mode : DVD-Video
Duration : 23mn 54s
Bit rate mode : Constant
Bit rate : 384 Kbps
Channel(s) : 6 channels
Channel positions : Front: L C R, Side: L R, LFE
Sampling rate : 48.0 KHz
Bit depth : 16 bits
Compression mode : Lossy
Stream size : 65.7 MiB (6%)

Text #1
ID : 189 (0xBD)-46 (0x2E)
Format : RLE
Format/Info : Run-length encoding
Muxing mode : DVD-Video
Duration : 23mn 47s
Delay relative to video : 4s 680ms

Text #2
ID : 189 (0xBD)-47 (0x2F)
Format : RLE
Format/Info : Run-length encoding
Muxing mode : DVD-Video
Duration : 23mn 47s
Delay relative to video : 4s 680ms

Text #3
ID : 189 (0xBD)-48 (0x30)
Format : RLE
Format/Info : Run-length encoding
Muxing mode : DVD-Video
Duration : 23mn 47s
Delay relative to video : 4s 680ms

Text #4
ID : 189 (0xBD)-49 (0x31)
Format : RLE
Format/Info : Run-length encoding
Muxing mode : DVD-Video
Duration : 23mn 47s
Delay relative to video : 4s 680ms

Text #5
ID : 189 (0xBD)-50 (0x32)
Format : RLE
Format/Info : Run-length encoding
Muxing mode : DVD-Video
Duration : 23mn 47s
Delay relative to video : 4s 680ms

Text #6
ID : 189 (0xBD)-51 (0x33)
Format : RLE
Format/Info : Run-length encoding
Muxing mode : DVD-Video
Duration : 23mn 47s
Delay relative to video : 4s 680ms

Text #7
ID : 189 (0xBD)-52 (0x34)
Format : RLE
Format/Info : Run-length encoding
Muxing mode : DVD-Video
Duration : 23mn 47s
Delay relative to video : 4s 680ms

Text #8
ID : 189 (0xBD)-32 (0x20)
Format : RLE
Format/Info : Run-length encoding
Muxing mode : DVD-Video

Text #9
ID : 189 (0xBD)-33 (0x21)
Format : RLE
Format/Info : Run-length encoding
Muxing mode : DVD-Video

Text #10
ID : 189 (0xBD)-35 (0x23)
Format : RLE
Format/Info : Run-length encoding
Muxing mode : DVD-Video

Text #11
ID : 189 (0xBD)-36 (0x24)
Format : RLE
Format/Info : Run-length encoding
Muxing mode : DVD-Video

Text #12
ID : 189 (0xBD)-37 (0x25)
Format : RLE
Format/Info : Run-length encoding
Muxing mode : DVD-Video

Text #13
ID : 189 (0xBD)-38 (0x26)
Format : RLE
Format/Info : Run-length encoding
Muxing mode : DVD-Video

Text #14
ID : 189 (0xBD)-40 (0x28)
Format : RLE
Format/Info : Run-length encoding
Muxing mode : DVD-Video

Text #15
ID : 189 (0xBD)-41 (0x29)
Format : RLE
Format/Info : Run-length encoding
Muxing mode : DVD-Video

Text #16
ID : 189 (0xBD)-42 (0x2A)
Format : RLE
Format/Info : Run-length encoding
Muxing mode : DVD-Video

Text #17
ID : 189 (0xBD)-43 (0x2B)
Format : RLE
Format/Info : Run-length encoding
Muxing mode : DVD-Video

Text #18
ID : 189 (0xBD)-44 (0x2C)
Format : RLE
Format/Info : Run-length encoding
Muxing mode : DVD-Video

Text #19
ID : 189 (0xBD)-45 (0x2D)
Format : RLE
Format/Info : Run-length encoding
Muxing mode : DVD-Video

Menu






реклама партнёра


Вернуться к началу
 Профиль  
 
   Похожие торренты   Автор   Торрент   Размер 
В этой теме нет новых непрочитанных сообщений. Бегущий в лабиринте / The Maze Runner [фантастика, триллер, приключения, 2014] Blu-Ray, Dub+Sub [Лицензия] [2D/3D]

Dracon

15 | 6

43.25 ГБ

В этой теме нет новых непрочитанных сообщений. Бегущий в лабиринте / The Maze Runner [фантастика, триллер, приключения, 2014] DVD9, Dub+Sub [Лицензия]

salma3

94 | 4

6.83 ГБ

В этой теме нет новых непрочитанных сообщений. Бегущий в Лабиринте / The Maze Runner [Фантастика, Боевик, Триллер, Детектив, 2014] DVDRip-AVC, Dub+Sub [Лицензия]

Dracon

189 | 5

1.77 ГБ

В этой теме нет новых непрочитанных сообщений. Бегущий в лабиринте / The Maze Runner [Фантастика, Боевик, Триллер, Детектив, 2014] BDRip 1080p, Dub+Sub [Лицензия]

Dracon

487 | 28

11.85 ГБ

В этой теме нет новых непрочитанных сообщений. Бегущий в лабиринте / The Maze Runner [Фантастика, Боевик, Триллер, Детектив, 2014] BDRemux 1080p, Dub+Sub [Лицензия]

Dracon

173 | 18

24.19 ГБ

В этой теме нет новых непрочитанных сообщений. Бегущий в лабиринте / The Maze Runner [Фантастика, Боевик, Триллер, Детектив, 2014] BDRip 720p, Dub+Sub [Лицензия]

Dracon

5247 | 172

2.46 ГБ

В этой теме нет новых непрочитанных сообщений. Бегущий в лабиринте: Испытание огнём / Maze Runner: The Scorch Trials (Уэс Болл) [фантастика, боевик, триллер, 2015] DVD5, Dub+Sub [Лицензия]

Dracon

346 | 71

4.36 ГБ


Начать новую тему Ответить на тему  [ 1 сообщение ] 




Для Мосгорсуда, Роскомнадзора и рекламодателей:: mosgorsud-torrent[собачка]yandex.ru