Торрент файл
скачать торрент магнет ссылка Добавлен: 19 дек 2014, 22:03
Размер: 4.36 ГБ
Сидеров: 38
Личеров: 6
Автор

СообщениеДобавлено: 19 дек 2014, 22:03 

Не в сети
Зам. Админа
Аватара пользователя
Дата регистрации:
02 дек 2010, 12:39
Спасибо: 12460 / 214
Сообщения: 27968
Год выхода: 2013
Жанр: драма, комедия, криминал, биография
Режиссер: Мартин Скорсезе
В ролях: Леонардо ДиКаприо, Джона Хилл, Марго Робби, Кайл Чандлер, Роб Райнер, П.Дж. Бирн, Джон Бернтал, Кристин Милиоти, Жан Дюжарден, Мэттью МакКонахи

О фильме:
1987 год. Джордан Белфорт становится брокером в успешном инвестиционном банке. Вскоре банк закрывается после внезапного обвала индекса Доу-Джонса. По совету жены Терезы Джордан устраивается в небольшое заведение, занимающееся мелкими акциями. Его настойчивый стиль общения с клиентами и врождённая харизма быстро даёт свои плоды. Он знакомится с соседом по дому Донни, торговцем, который сразу находит общий язык с Джорданом и решает открыть с ним собственную фирму. В качестве сотрудников они нанимают нескольких друзей Белфорта, его отца Макса и называют компанию «Стрэттон Оукмонт». В свободное от работы время Джордан прожигает жизнь: лавирует от одной вечеринки к другой, вступает в сексуальные отношения с проститутками, употребляет множество наркотических препаратов, в том числе кокаин и кваалюд. Однажды наступает момент, когда быстрым обогащением Белфорта начинает интересоваться агент ФБР…



лицам до 17 лет обязательно присутствие взрослого

Страна: США
Студия: Appian Way, EMJAG Productions, Red Granite Pictures, Sikelia Productions
Продолжительность: 180 мин. / 03:00
Перевод: полное дублирование

Кодек: MPEG2
Качество: DVD5 (сжатый)
Видео: PAL 16:9 (720x576@1024x576) VBR 2778 Kbps, 25.000 fps
Аудио 1: Dolby AC3, 6 ch, 48.0 KHz, 384 Kbps [английский]
Аудио 2: Dolby AC3, 6 ch, 48.0 KHz, 384 Kbps [русский]
Субтитры: русские

Видео сжато на 15,7%
Удалены: предупреждающие надписи, доп. материалы, русская (DTS) и украинская звуковая дорожка (в меню кнопки затёрты)
Меню: статичное, на русском языке, недействующие кнопки затерты и закрыты.
Обработка и сжатие: DVD ReMake Pro + DVD Rebuilder + CCE SP2 [7 проходов] + Работа с меню (Adobe PhotoShop и MuxMan).
General
Complete name : D:The Wolf of Wall Street (2013) DVD5VIDEO_TSVTS_08_1.VOB
Format : MPEG-PS
File size : 1 024 MiB
Duration : 39mn 33s
Overall bit rate mode : Variable
Overall bit rate : 3 618 Kbps

Video
ID : 224 (0xE0)
Format : MPEG Video
Format version : Version 2
Format profile : Main@Main
Format settings, BVOP : Yes
Format settings, Matrix : Custom
Format settings, GOP : Variable
Format settings, picture struc : Frame
Duration : 39mn 33s
Bit rate mode : Variable
Bit rate : 2 778 Kbps
Maximum bit rate : 5 685 Kbps
Width : 720 pixels
Height : 576 pixels
Display aspect ratio : 16:9
Frame rate : 25.000 fps
Standard : PAL
Color space : YUV
Chroma subsampling : 4:2:0
Bit depth : 8 bits
Scan type : Interlaced
Scan order : Top Field First
Compression mode : Lossy
Bits/(Pixel*Frame) : 0.268
Time code of first frame : 00:00:00:00
Time code source : Group of pictures header
Stream size : 786 MiB (77%)

Audio #1
ID : 189 (0xBD)-128 (0x80)
Format : AC-3
Format/Info : Audio Coding 3
Mode extension : CM (complete main)
Format settings, Endianness : Big
Muxing mode : DVD-Video
Duration : 39mn 33s
Bit rate mode : Constant
Bit rate : 384 Kbps
Channel(s) : 6 channels
Channel positions : Front: L C R, Side: L R, LFE
Sampling rate : 48.0 KHz
Bit depth : 16 bits
Compression mode : Lossy
Stream size : 109 MiB (11%)

Audio #2
ID : 189 (0xBD)-129 (0x81)
Format : AC-3
Format/Info : Audio Coding 3
Mode extension : CM (complete main)
Format settings, Endianness : Big
Muxing mode : DVD-Video
Duration : 39mn 33s
Bit rate mode : Constant
Bit rate : 384 Kbps
Channel(s) : 6 channels
Channel positions : Front: L C R, Side: L R, LFE
Sampling rate : 48.0 KHz
Bit depth : 16 bits
Compression mode : Lossy
Stream size : 109 MiB (11%)

Text
ID : 189 (0xBD)-32 (0x20)
Format : RLE
Format/Info : Run-length encoding
Muxing mode : DVD-Video

Menu





реклама партнёра


Вернуться к началу
 Профиль  
 
   Похожие торренты   Автор   Торрент   Размер 
В этой теме нет новых непрочитанных сообщений. Волк с Уолл-стрит / The Wolf of Wall Street [драма, комедия, криминал, биография, 2013] HDRip-AVC, Dub+Sub

Dracon

0 | 5

2.3 ГБ

В этой теме нет новых непрочитанных сообщений. Волк с Уолл-стрит / The Wolf of Wall Street [драма, комедия, криминал, биография, 2013] BDRip-AVC, Dub+Dvo+Avo+Sub

Dracon

49 | 3

6.15 ГБ

В этой теме нет новых непрочитанных сообщений. Волк с Уолл-стрит / The Wolf of Wall Street [драма, комедия, криминал, биография, 2013] HDRip, Dub [лицензия]

Dracon

13 | 2

2.05 ГБ

В этой теме нет новых непрочитанных сообщений. Волк с Уолл-стрит / The Wolf of Wall Street [драма, комедия, криминал, биография, 2013] Blu-Ray Remux 1080p, Dub+Avo+Sub

Dracon

57 | 13

47.2 ГБ

В этой теме нет новых непрочитанных сообщений. Волк с Уолл-стрит / The Wolf of Wall Street [драма, комедия, криминал, биография, 2013] BDRip 1080p, Dub+Sub

Dracon

1178 | 41

11.28 ГБ

В этой теме нет новых непрочитанных сообщений. Волк с Уолл-Стрит / The Wolf of Wall Street [драма, комедия, криминал, биография, 2013] BDRip 1080p, Dvo+Sub

Dracon

21 | 2

12.27 ГБ

В этой теме нет новых непрочитанных сообщений. Волк с Уолл-стрит / The Wolf of Wall Street [драма, комедия, криминал, биография, 2013] BDRip 1080p, Dub+Avo+Sub [Лицензия]

Dracon

239 | 24

19.36 ГБ


Начать новую тему Ответить на тему  [ 1 сообщение ] 




Для Мосгорсуда, Роскомнадзора и рекламодателей:: mosgorsud-torrent[собачка]yandex.ru