Торрент файл
скачать торрент магнет ссылка Добавлен: 18 дек 2014, 00:03
Размер: 4.36 ГБ
Сидеров: 51
Личеров: 3
Автор

СообщениеДобавлено: 18 дек 2014, 00:03 

Не в сети
Супермодератор
Аватара пользователя
Дата регистрации:
15 фев 2012, 16:44
Возраст: 27
Спасибо: 5132 / 2089
Сообщения: 17376
Год выхода: 2014
Жанр: комедия, боевик, криминал
Режиссер: Фил Лорд, Кристофер Миллер

В ролях: Джона Хилл, Ченнинг Татум, Петер Стормаре, Уайатт Расселл, Эмбер Стивенс, Джиллиан Белл, Айс Кьюб, братья Лукас, Ник Офферман, Джимми Татро

О фильме:
Офицерам Шмидту и Дженко теперь предстоит работать под прикрытием в местном колледже. Однако когда Дженко встречает родственную душу в футбольной команде, а Шмидт проникает в богемную среду, они начинают сомневаться в их товариществе…




лицам до 17 лет обязательно присутствие взрослого

Страна: США
Студия: Columbia Pictures, Metro-Goldwyn-Mayer (MGM)
Продолжительность: 112 мин. / 01:52
Перевод: полное дублирование

Файл
Кодек: MPEG2
Качество: DVD5 (сжатый)
Видео: PAL 16:9 (720x576@1024x576) VBR 4714 Kbps, 25.000 fps
Аудио 1: Dolby AC3, 6 ch, 48.0 KHz, 384 Kbps [русский]
Аудио 2: Dolby AC3, 2 ch, 48.0 KHz, 192 Kbps [комментарии]
Субтитры: английские, арабские, болгарские, эстонские, исландские, латышские, литовские, русские, украинские

Сжатие видео - 0%!
Удалены: предупреждения, доп. материалы, английская и украинская звуковая дорожка (в меню кнопки стёрты).
Обработка: DVD ReMake Pro + Работа с меню (Adobe PhotoShop и MuxMan).
General
Complete name : D:22 Jump Street (2014) DVD5VIDEO_TSVTS_02_1.VOB
Format : MPEG-PS
File size : 1 024 MiB
Duration : 26mn 31s
Overall bit rate mode : Variable
Overall bit rate : 5 397 Kbps

Video
ID : 224 (0xE0)
Format : MPEG Video
Format version : Version 2
Format profile : Main@Main
Format settings, BVOP : Yes
Format settings, Matrix : Custom
Format settings, GOP : Variable
Duration : 26mn 31s
Bit rate mode : Variable
Bit rate : 4 714 Kbps
Width : 720 pixels
Height : 576 pixels
Display aspect ratio : 16:9
Frame rate : 25.000 fps
Standard : PAL
Color space : YUV
Chroma subsampling : 4:2:0
Bit depth : 8 bits
Scan type : Progressive
Compression mode : Lossy
Bits/(Pixel*Frame) : 0.455
Time code of first frame : 01:00:00:00
Time code source : Group of pictures header
Stream size : 894 MiB (87%)
Color primaries : BT.601 NTSC
Transfer characteristics : BT.601
Matrix coefficients : BT.601

Audio #1
ID : 189 (0xBD)-129 (0x81)
Format : AC-3
Format/Info : Audio Coding 3
Mode extension : CM (complete main)
Format settings, Endianness : Big
Muxing mode : DVD-Video
Duration : 26mn 31s
Bit rate mode : Constant
Bit rate : 384 Kbps
Channel(s) : 6 channels
Channel positions : Front: L C R, Side: L R, LFE
Sampling rate : 48.0 KHz
Bit depth : 16 bits
Compression mode : Lossy
Stream size : 72.8 MiB (7%)

Audio #2
ID : 189 (0xBD)-131 (0x83)
Format : AC-3
Format/Info : Audio Coding 3
Format profile : Dolby Digital
Mode extension : CM (complete main)
Format settings, Endianness : Big
Muxing mode : DVD-Video
Duration : 26mn 31s
Bit rate mode : Constant
Bit rate : 192 Kbps
Channel(s) : 2 channels
Channel positions : Front: L R
Sampling rate : 48.0 KHz
Bit depth : 16 bits
Compression mode : Lossy
Stream size : 36.4 MiB (4%)

Text #1
ID : 189 (0xBD)-40 (0x28)
Format : RLE
Format/Info : Run-length encoding
Muxing mode : DVD-Video

Text #2
ID : 189 (0xBD)-41 (0x29)
Format : RLE
Format/Info : Run-length encoding
Muxing mode : DVD-Video
Duration : 26mn 26s
Delay relative to video : 3s 600ms

Text #3
ID : 189 (0xBD)-32 (0x20)
Format : RLE
Format/Info : Run-length encoding
Muxing mode : DVD-Video

Text #4
ID : 189 (0xBD)-33 (0x21)
Format : RLE
Format/Info : Run-length encoding
Muxing mode : DVD-Video

Text #5
ID : 189 (0xBD)-34 (0x22)
Format : RLE
Format/Info : Run-length encoding
Muxing mode : DVD-Video

Text #6
ID : 189 (0xBD)-35 (0x23)
Format : RLE
Format/Info : Run-length encoding
Muxing mode : DVD-Video

Text #7
ID : 189 (0xBD)-36 (0x24)
Format : RLE
Format/Info : Run-length encoding
Muxing mode : DVD-Video

Text #8
ID : 189 (0xBD)-37 (0x25)
Format : RLE
Format/Info : Run-length encoding
Muxing mode : DVD-Video

Text #9
ID : 189 (0xBD)-38 (0x26)
Format : RLE
Format/Info : Run-length encoding
Muxing mode : DVD-Video

Text #10
ID : 189 (0xBD)-39 (0x27)
Format : RLE
Format/Info : Run-length encoding
Muxing mode : DVD-Video

Menu


_________________



реклама партнёра


Вернуться к началу
 Профиль Отправить личное сообщение  
 
   Похожие торренты   Автор   Торрент   Размер 
В этой теме нет новых непрочитанных сообщений. Мачо и ботан 2 / 22 Jump Street [боевик, комедия, криминал, 2014] CAMRip, dub

Dracon

3261 | 129

1.36 ГБ

В этой теме нет новых непрочитанных сообщений. Мачо и ботан 2 / 22 Jump Street [боевик, комедия, криминал, 2014] Blu-Ray, Dub+Sub [лицензия]

Dracon

31 | 10

43.87 ГБ

В этой теме нет новых непрочитанных сообщений. Мачо и ботан 2 / 22 Jump Street [боевик, комедия, криминал, 2014] WEB-DL 720p, Dub [iTunes]

Dracon

6 | 2

3.31 ГБ

В этой теме нет новых непрочитанных сообщений. Мачо и ботан 2 / 22 Jump Street [комедия, боевик, криминал, 2014] HDRip, Dub [iPad]

salma3

92 | 4

1.5 ГБ

В этой теме нет новых непрочитанных сообщений. Мачо и ботан 2 / 22 Jump Street [боевик, комедия, криминал, 2014] HDRip, Dub [лицензия]

Dracon

137 | 4

1.37 ГБ

В этой теме нет новых непрочитанных сообщений. Мачо и ботан 2 / 22 Jump Street [боевик, комедия, криминал, 2014] WEB-DLRip, Dub [iTunes]

Dracon

62 | 2

1.37 ГБ

В этой теме нет новых непрочитанных сообщений. Мачо и ботан 2 / 22 Jump Street [боевик, комедия, криминал, 2014] DVD9, Dub+Sub [лицензия]

Dracon

41 | 2

6.5 ГБ


Начать новую тему Ответить на тему  [ 1 сообщение ] 




Для Мосгорсуда, Роскомнадзора и рекламодателей:: mosgorsud-torrent[собачка]yandex.ru