Торрент файл
скачать торрент магнет ссылка Добавлен: 11 дек 2014, 12:13
Размер: 4.37 ГБ
Сидеров: 41
Личеров: 5
Статус: (Dracon)
Автор

СообщениеДобавлено: 11 дек 2014, 12:13 

Не в сети
Зам. Админа
Аватара пользователя
Дата регистрации:
02 дек 2010, 12:39
Спасибо: 12461 / 214
Сообщения: 27968
Год выхода: 2014
Жанр: боевик, приключения
Режиссер: Бретт Рэтнер
В ролях: Дуэйн Джонсон, Иэн МакШейн, Джон Хёрт, Руфус Сьюэлл, Аксель Хенни, Ингрид Больсё Бердаль, Рис Ричи, Джозеф Файнс, Тобиас Зантельман, Питер Муллан

О фильме:
Более тысячи лет назад измученная душа скиталась по Земле, полубог, получеловек — Геракл — могучий сын царя богов Зевса, совершив все 12 подвигов, потерял семью и теперь находит утешение только в кровавых битвах.

За эти годы он собирает вокруг себя шестерых таких же потерянных воинов, единственным смыслом жизни для которых стали сражения и присутствие смертельной опасности. Эти мужчины и женщина никогда не задают вопрос, где, почему или с кем они идут сражаться; только, сколько им заплатят. Зная это, фракийский царь Котис нанимает этих воинов, чтобы они обучили его солдат и сделали из них самую сильную и великую армию всех времен.



детям до 13 лет просмотр не желателен

Страна: США
Студия: Metro-Goldwyn-Mayer (MGM), Paramount Pictures
Продолжительность: 98 мин. / 01:38
Перевод: полное дублирование

Кодек: MPEG2
Качество: DVD5 (сжатый)
Видео: PAL 16:9 (720x576@1024x576) VBR 5560 Kbps, 25.000 fps
Аудио 1: Dolby AC3, 5.1 ch, 48.0 KHz, 448 Kbps [английский - оригинал]
Аудио 2: Dolby AC3, 5.1 ch, 48.0 KHz, 448 Kbps [русский - дублированный]
Субтитры: арабский, греческий, эстонский, английский, хинди, исландский, латышский, литовский, русский, украинский

Удалены: предупреждающие надписи, доп. материалы, хинди, украинская, английская (комментарии) звуковые дорожки (в меню кнопки затёрты)
Видео сжато на 16%
Меню: статичное, на русском и на английском языке, недействующие кнопки затерты и закрыты.
Обработка и сжатие: DVD ReMake Pro + DVD Rebuilder + CCE SP2 [7 проходов] + Работа с меню (Adobe PhotoShop и MuxMan).
General
Complete name : D:Hercules (2014) DVD5VIDEO_TSVTS_04_1.VOB
Format : MPEG-PS
File size : 1 024 MiB
Duration : 21mn 44s
Overall bit rate mode : Variable
Overall bit rate : 6 587 Kbps

Video
ID : 224 (0xE0)
Format : MPEG Video
Format version : Version 2
Format profile : Main@Main
Format settings, BVOP : Yes
Format settings, Matrix : Custom
Format settings, GOP : Variable
Duration : 21mn 44s
Bit rate mode : Variable
Bit rate : 5 560 Kbps
Maximum bit rate : 7 140 Kbps
Width : 720 pixels
Height : 576 pixels
Display aspect ratio : 16:9
Frame rate : 25.000 fps
Standard : PAL
Color space : YUV
Chroma subsampling : 4:2:0
Bit depth : 8 bits
Scan type : Progressive
Scan order : Top Field First
Compression mode : Lossy
Bits/(Pixel*Frame) : 0.536
Time code of first frame : 00:00:00:00
Time code source : Group of pictures header
Stream size : 864 MiB (84%)

Audio #1
ID : 189 (0xBD)-128 (0x80)
Format : AC-3
Format/Info : Audio Coding 3
Mode extension : CM (complete main)
Format settings, Endianness : Big
Muxing mode : DVD-Video
Duration : 21mn 43s
Bit rate mode : Constant
Bit rate : 448 Kbps
Channel(s) : 6 channels
Channel positions : Front: L C R, Side: L R, LFE
Sampling rate : 48.0 KHz
Bit depth : 16 bits
Compression mode : Lossy
Stream size : 69.6 MiB (7%)

Audio #2
ID : 189 (0xBD)-130 (0x82)
Format : AC-3
Format/Info : Audio Coding 3
Mode extension : CM (complete main)
Format settings, Endianness : Big
Muxing mode : DVD-Video
Duration : 21mn 43s
Bit rate mode : Constant
Bit rate : 448 Kbps
Channel(s) : 6 channels
Channel positions : Front: L C R, Side: L R, LFE
Sampling rate : 48.0 KHz
Bit depth : 16 bits
Compression mode : Lossy
Stream size : 69.6 MiB (7%)

Text #1
ID : 189 (0xBD)-32 (0x20)
Format : RLE
Format/Info : Run-length encoding
Muxing mode : DVD-Video
Duration : 21mn 41s

Text #2
ID : 189 (0xBD)-33 (0x21)
Format : RLE
Format/Info : Run-length encoding
Muxing mode : DVD-Video
Duration : 21mn 41s

Text #3
ID : 189 (0xBD)-34 (0x22)
Format : RLE
Format/Info : Run-length encoding
Muxing mode : DVD-Video
Duration : 21mn 41s

Text #4
ID : 189 (0xBD)-35 (0x23)
Format : RLE
Format/Info : Run-length encoding
Muxing mode : DVD-Video
Duration : 21mn 41s

Text #5
ID : 189 (0xBD)-36 (0x24)
Format : RLE
Format/Info : Run-length encoding
Muxing mode : DVD-Video
Duration : 21mn 41s

Text #6
ID : 189 (0xBD)-37 (0x25)
Format : RLE
Format/Info : Run-length encoding
Muxing mode : DVD-Video
Duration : 21mn 41s

Text #7
ID : 189 (0xBD)-38 (0x26)
Format : RLE
Format/Info : Run-length encoding
Muxing mode : DVD-Video
Duration : 21mn 41s

Text #8
ID : 189 (0xBD)-39 (0x27)
Format : RLE
Format/Info : Run-length encoding
Muxing mode : DVD-Video
Duration : 21mn 41s

Text #9
ID : 189 (0xBD)-40 (0x28)
Format : RLE
Format/Info : Run-length encoding
Muxing mode : DVD-Video
Duration : 21mn 41s

Text #10
ID : 189 (0xBD)-41 (0x29)
Format : RLE
Format/Info : Run-length encoding
Muxing mode : DVD-Video
Duration : 21mn 41s

Text #11
ID : 189 (0xBD)-42 (0x2A)
Format : RLE
Format/Info : Run-length encoding
Muxing mode : DVD-Video
Duration : 21mn 41s

Text #12
ID : 189 (0xBD)-43 (0x2B)
Format : RLE
Format/Info : Run-length encoding
Muxing mode : DVD-Video
Duration : 21mn 41s

Text #13
ID : 189 (0xBD)-44 (0x2C)
Format : RLE
Format/Info : Run-length encoding
Muxing mode : DVD-Video
Duration : 21mn 41s

Text #14
ID : 189 (0xBD)-45 (0x2D)
Format : RLE
Format/Info : Run-length encoding
Muxing mode : DVD-Video
Duration : 21mn 41s

Text #15
ID : 189 (0xBD)-46 (0x2E)
Format : RLE
Format/Info : Run-length encoding
Muxing mode : DVD-Video
Duration : 21mn 41s

Text #16
ID : 189 (0xBD)-47 (0x2F)
Format : RLE
Format/Info : Run-length encoding
Muxing mode : DVD-Video
Duration : 21mn 41s

Text #17
ID : 189 (0xBD)-48 (0x30)
Format : RLE
Format/Info : Run-length encoding
Muxing mode : DVD-Video
Duration : 21mn 41s

Text #18
ID : 189 (0xBD)-49 (0x31)
Format : RLE
Format/Info : Run-length encoding
Muxing mode : DVD-Video
Duration : 21mn 41s

Text #19
ID : 189 (0xBD)-50 (0x32)
Format : RLE
Format/Info : Run-length encoding
Muxing mode : DVD-Video
Duration : 21mn 41s

Text #20
ID : 189 (0xBD)-51 (0x33)
Format : RLE
Format/Info : Run-length encoding
Muxing mode : DVD-Video
Duration : 21mn 41s

Text #21
ID : 189 (0xBD)-52 (0x34)
Format : RLE
Format/Info : Run-length encoding
Muxing mode : DVD-Video
Duration : 21mn 43s

Text #22
ID : 189 (0xBD)-53 (0x35)
Format : RLE
Format/Info : Run-length encoding
Muxing mode : DVD-Video
Duration : 21mn 43s

Text #23
ID : 189 (0xBD)-54 (0x36)
Format : RLE
Format/Info : Run-length encoding
Muxing mode : DVD-Video

Text #24
ID : 189 (0xBD)-55 (0x37)
Format : RLE
Format/Info : Run-length encoding
Muxing mode : DVD-Video

Menu





реклама партнёра


Вернуться к началу
 Профиль  
 
   Похожие торренты   Автор   Торрент   Размер 
В этой теме нет новых непрочитанных сообщений. Геракл / Hercules Геракл / Hercules Геракл / Hercules Геракл / Hercules [Боевик, Приключения, Фэнтези, 2014] BDRip, Dub [Theatrical | iTunes]

Dracon

2035 | 23

1.46 ГБ

В этой теме нет новых непрочитанных сообщений. Геракл / Hercules Геракл / Hercules [EXTENDED] [Боевик, Приключения, Фэнтези, 2014] HDRip, dub [Чистый звук]

Dracon

321 | 6

1.37 ГБ

В этой теме нет новых непрочитанных сообщений. Геракл: Начало легенды / The Legend of Hercules [боевик, фэнтези, 2014] DVD5, Dub [лицензия]

Dracon

61 | 13

4.37 ГБ

В этой теме нет новых непрочитанных сообщений. Геракл / Hercules [Боевик, Приключения, Фэнтези, 2014] HDRip, Dub [Лицензия]

Dracon

48 | 4

1.47 ГБ

В этой теме нет новых непрочитанных сообщений. Геракл / Hercules [боевик, Приключения, 2014] BDRip 1080p, Dub+Sub [3D-Video | Лицензия]

Dracon

345 | 25

8.41 ГБ

В этой теме нет новых непрочитанных сообщений. Геракл / Hercules [Боевик, Приключения, Фэнтези, 2014] BDRip 1080p, Dub+Sub [Лицензия]

Dracon

10 | 2

11.02 ГБ

В этой теме нет новых непрочитанных сообщений. Геракл / Hercules [Боевик, Приключения, Фэнтези, 2014] BDRip 720p, Dub [Лицензия]

Dracon

15 | 2

4.07 ГБ


Начать новую тему Ответить на тему  [ 1 сообщение ] 




Для Мосгорсуда, Роскомнадзора и рекламодателей:: mosgorsud-torrent[собачка]yandex.ru