Торрент файл
скачать торрент магнет ссылка Добавлен: 10 дек 2014, 22:09
Размер: 6.83 ГБ
Сидеров: 94
Личеров: 4
Автор

СообщениеДобавлено: 10 дек 2014, 22:07 

В сети
Супермодератор
Аватара пользователя
Дата регистрации:
15 фев 2012, 16:44
Возраст: 27
Спасибо: 5139 / 2089
Сообщения: 17429
Год выхода: 2014
Жанр: фантастика, триллер, приключения
Режиссер: Уэс Болл
В ролях: Дилан О’Брайен, Томас Сэнгстер, Кая Скоделарио, Уилл Поултер, Ки Хонг Ли, Блейк Купер, Амл Амин, Алекс Дж. Флорес, Джейкоб Латимор, Патришия Кларксон

О фильме:
Главный герой — подросток Томас, который просыпается в лифте, но ничего не помнит, кроме своего имени. Он оказывается среди 60 подростков, научившихся выживать в замкнутом пространстве. Раз в 30 дней прибывает новый мальчик. Группа ребят проживает в «Приюте» уже три года. Они кормятся тем, что удается вырастить на земле, и пытаются найти выход из лабиринта, окружающего их место жительства. Но однажды появляется девочка в состоянии комы…




детям до 13 лет просмотр не желателен

Страна: США, Великобритания, Канада
Студия: 20th Century Fox
Продолжительность: 113 мин. / 01:53
Перевод: полное дублирование
Бонусы: Удаленные сцены, Фотогалерея, Трейлер

Файл
Кодек: MPEG2
Качество: DVD9
Видео: PAL 16:9 (720x576@1024x576) VBR 5275 Kbps, 25.000 fps
Аудио 1: Dolby AC3, 5.1 ch, 48.0 KHz, 448 Kbps [Английский - оригинал]
Аудио 2: Dolby AC3, 5.1 ch, 48.0 KHz, 384 Kbps [Испанский - дублированный]
Аудио 3: Dolby AC3, 5.1 ch, 48.0 KHz, 384 Kbps [Русский - дублированный]
Аудио 4: Dolby AC3, 2.0 ch, 48.0 KHz, 192 Kbps [Английский - комментарии]
Субтитры: русские, английские, датские, шведские, финские, суоми, норвежские, хинди, эстонские, латышские, литовские, украинские

General
Complete name : D:Begyshii.V.Labirinte.2014.DVD9VIDEO_TSVTS_05_1.VOB
Format : MPEG-PS
File size : 1 024 MiB
Duration : 20mn 59s
Overall bit rate mode : Variable
Overall bit rate : 6 819 Kbps

Video
ID : 224 (0xE0)
Format : MPEG Video
Format version : Version 2
Format profile : Main@Main
Format settings, BVOP : Yes
Format settings, Matrix : Custom
Format settings, GOP : Variable
Duration : 20mn 59s
Bit rate mode : Variable
Bit rate : 5 275 Kbps
Width : 720 pixels
Height : 576 pixels
Display aspect ratio : 16:9
Frame rate : 25.000 fps
Standard : PAL
Color space : YUV
Chroma subsampling : 4:2:0
Bit depth : 8 bits
Scan type : Progressive
Compression mode : Lossy
Bits/(Pixel*Frame) : 0.509
Time code of first frame : 01:00:00:00
Time code source : Group of pictures header
Stream size : 792 MiB (77%)
Color primaries : BT.601 NTSC
Transfer characteristics : BT.601
Matrix coefficients : BT.601

Audio #1
ID : 189 (0xBD)-128 (0x80)
Format : AC-3
Format/Info : Audio Coding 3
Mode extension : CM (complete main)
Format settings, Endianness : Big
Muxing mode : DVD-Video
Duration : 20mn 59s
Bit rate mode : Constant
Bit rate : 448 Kbps
Channel(s) : 6 channels
Channel positions : Front: L C R, Side: L R, LFE
Sampling rate : 48.0 KHz
Bit depth : 16 bits
Compression mode : Lossy
Stream size : 67.3 MiB (7%)

Audio #2
ID : 189 (0xBD)-129 (0x81)
Format : AC-3
Format/Info : Audio Coding 3
Mode extension : CM (complete main)
Format settings, Endianness : Big
Muxing mode : DVD-Video
Duration : 20mn 59s
Bit rate mode : Constant
Bit rate : 384 Kbps
Channel(s) : 6 channels
Channel positions : Front: L C R, Side: L R, LFE
Sampling rate : 48.0 KHz
Bit depth : 16 bits
Compression mode : Lossy
Stream size : 57.7 MiB (6%)

Audio #3
ID : 189 (0xBD)-130 (0x82)
Format : AC-3
Format/Info : Audio Coding 3
Mode extension : CM (complete main)
Format settings, Endianness : Big
Muxing mode : DVD-Video
Duration : 20mn 59s
Bit rate mode : Constant
Bit rate : 384 Kbps
Channel(s) : 6 channels
Channel positions : Front: L C R, Side: L R, LFE
Sampling rate : 48.0 KHz
Bit depth : 16 bits
Compression mode : Lossy
Stream size : 57.7 MiB (6%)

Audio #4
ID : 189 (0xBD)-131 (0x83)
Format : AC-3
Format/Info : Audio Coding 3
Mode extension : CM (complete main)
Format settings, Endianness : Big
Muxing mode : DVD-Video
Duration : 20mn 59s
Bit rate mode : Constant
Bit rate : 192 Kbps
Channel(s) : 2 channels
Channel positions : Front: L R
Sampling rate : 48.0 KHz
Bit depth : 16 bits
Compression mode : Lossy
Stream size : 28.8 MiB (3%)

Text #1
ID : 189 (0xBD)-46 (0x2E)
Format : RLE
Format/Info : Run-length encoding
Muxing mode : DVD-Video
Duration : 20mn 54s
Delay relative to video : 4s 680ms

Text #2
ID : 189 (0xBD)-47 (0x2F)
Format : RLE
Format/Info : Run-length encoding
Muxing mode : DVD-Video
Duration : 20mn 54s
Delay relative to video : 4s 680ms

Text #3
ID : 189 (0xBD)-48 (0x30)
Format : RLE
Format/Info : Run-length encoding
Muxing mode : DVD-Video
Duration : 20mn 54s
Delay relative to video : 4s 680ms

Text #4
ID : 189 (0xBD)-49 (0x31)
Format : RLE
Format/Info : Run-length encoding
Muxing mode : DVD-Video
Duration : 20mn 54s
Delay relative to video : 4s 680ms

Text #5
ID : 189 (0xBD)-50 (0x32)
Format : RLE
Format/Info : Run-length encoding
Muxing mode : DVD-Video
Duration : 20mn 54s
Delay relative to video : 4s 680ms

Text #6
ID : 189 (0xBD)-51 (0x33)
Format : RLE
Format/Info : Run-length encoding
Muxing mode : DVD-Video
Duration : 20mn 54s
Delay relative to video : 4s 680ms

Text #7
ID : 189 (0xBD)-52 (0x34)
Format : RLE
Format/Info : Run-length encoding
Muxing mode : DVD-Video
Duration : 20mn 54s
Delay relative to video : 4s 680ms

Menu


_________________



реклама партнёра


Вернуться к началу
 Профиль Отправить личное сообщение  
 
   Похожие торренты   Автор   Торрент   Размер 
В этой теме нет новых непрочитанных сообщений. Бегущий в лабиринте / The Maze Runner [фантастика, триллер, приключения, 2014] Blu-Ray, Dub+Sub [Лицензия] [2D/3D]

Dracon

15 | 6

43.25 ГБ

В этой теме нет новых непрочитанных сообщений. Бегущий в лабиринте / The Maze Runner [фантастика, триллер, приключения, 2014] DVD5, Dub+Sub [Лицензия]

Dracon

102 | 5

4.36 ГБ

В этой теме нет новых непрочитанных сообщений. Бегущий в Лабиринте / The Maze Runner [Фантастика, Боевик, Триллер, Детектив, 2014] DVDRip-AVC, Dub+Sub [Лицензия]

Dracon

189 | 5

1.77 ГБ

В этой теме нет новых непрочитанных сообщений. Бегущий в лабиринте / The Maze Runner [Фантастика, Боевик, Триллер, Детектив, 2014] BDRip 720p, Dub+Sub [Лицензия]

Dracon

5247 | 172

2.46 ГБ

В этой теме нет новых непрочитанных сообщений. Бегущий в лабиринте / The Maze Runner [Фантастика, Боевик, Триллер, Детектив, 2014] BDRip 1080p, Dub+Sub [Лицензия]

Dracon

487 | 28

11.85 ГБ

В этой теме нет новых непрочитанных сообщений. Бегущий в лабиринте / The Maze Runner [Фантастика, Боевик, Триллер, Детектив, 2014] BDRemux 1080p, Dub+Sub [Лицензия]

Dracon

173 | 18

24.19 ГБ

В этой теме нет новых непрочитанных сообщений. Бегущий в лабиринте / The Maze Runner [Фантастика, Боевик, Триллер, Детектив, 2014] HDRip, Dub [iTunes]

Dracon

20 | 2

1.46 ГБ


Начать новую тему Ответить на тему  [ 1 сообщение ] 




Для Мосгорсуда, Роскомнадзора и рекламодателей:: mosgorsud-torrent[собачка]yandex.ru