Торрент файл
скачать торрент магнет ссылка Добавлен: 03 дек 2014, 21:28
Размер: 4.35 ГБ
Сидеров: 20
Личеров: 3
Статус: (Dracon)
Автор

СообщениеДобавлено: 03 дек 2014, 21:28 

Не в сети
Зам. Админа
Аватара пользователя
Дата регистрации:
02 дек 2010, 12:39
Спасибо: 12461 / 214
Сообщения: 27968
Год выхода: 2014
Жанр: комедия
Режиссер: Бен Фэлкоун
В ролях: Мелисса МакКарти, Сьюзен Сарандон, Кэти Бейтс, Эллисон Дженни, Дэн Эйкройд, Марк Дюпласс, Гэри Коул, Нат Факсон, Тони Коллетт, Сандра О

О фильме:
Тэмми увольняют из ресторана быстрого питания. Возвращаясь домой, она застает своего мужа за романтическим ужином с соседкой. Увидев это, Тэмми собирает вещи и отправляется к родителям. Расстроенная героиня решает поехать в путешествие к Ниагарскому водопаду, вот только ее мама отказывается дать ей свою машину. Тэмми прибегает к помощи бабушки Перл. В итоге они вместе с бабулей отправляются в путь, и вскоре выясняется, что Перл большая любительница выпить…


Выпущено: США, Gary Sanchez Productions, New Line Cinema
Продолжительность: 01:32:48
Озвучивание: Профессиональный (многоголосый закадровый) [Лицензия]

Качество: DVD5
Формат: DVD-Video
Видео: MPEG-2, 720x576@1024x576 (PAL 16:9), ~6138 Кбит/сек
Аудио 1: AC3 5.1, 384 Кбит/сек [Английский - оригинал]
Аудио 2: AC3 5.1, 384 Кбит/сек [Русский - многоголосый закадровый]
Cубтитры: Английские, болгарские, хорватские, эстонские, латышские, литовские, польские, русские, сербские, словенские, турецкие, украинские
Скачать: Сэмпл
Общее
Полное имя : G:ВидеоTammy (2014) DVD5VIDEO_TSVTS_01_1.VOB
Формат : MPEG-PS
Размер файла : 1024 Мбайт
Продолжительность : 20 м.
Режим общего битрейта : Переменный
Общий поток : 7046 Кбит/сек

Видео
Идентификатор : 224 (0xE0)
Формат : MPEG Video
Версия формата : Version 2
Профиль формата : Main@Main
Параметр BVOP формата : Да
Параметр матрицы формата : Выборочная
Параметр GOP формата : Variable
Format_Settings_PictureStructure : Frame
Продолжительность : 20 м.
Вид битрейта : Переменный
Битрейт : 6138 Кбит/сек
Максимальный битрейт : 7500 Кбит/сек
Ширина : 720 пикселей
Высота : 576 пикселей
Соотношение сторон : 16:9
Частота кадров : 25,000 кадров/сек
Стандарт вещания : PAL
Цветовое пространство : YUV
Субдискретизация насыщенности : 4:2:0
Битовая глубина : 8 бит
Тип развёртки : Чересстрочная
Порядок развёртки : Верхнее поле первое
Метод сжатия : С потерями
Бит/(Пиксели*Кадры) : 0.592
Временной код первого кадра : 00:00:00:00
Оригинал временного кода : Group of pictures header
Размер потока : 892 Мбайт (87%)

Аудио #1
Идентификатор : 189 (0xBD)-128 (0x80)
Формат : AC-3
Формат/Информация : Audio Coding 3
Расширение режима : CM (complete main)
Параметр Endianness формата : Big
Режим смешивания : DVD-Video
Продолжительность : 20 м.
Вид битрейта : Постоянный
Битрейт : 384 Кбит/сек
Каналы : 6 каналов
Расположение каналов : Front: L C R, Side: L R, LFE
Частота : 48,0 КГц
Битовая глубина : 16 бит
Метод сжатия : С потерями
Размер потока : 55,8 Мбайт (5%)

Аудио #2
Идентификатор : 189 (0xBD)-130 (0x82)
Формат : AC-3
Формат/Информация : Audio Coding 3
Расширение режима : CM (complete main)
Параметр Endianness формата : Big
Режим смешивания : DVD-Video
Продолжительность : 20 м.
Вид битрейта : Постоянный
Битрейт : 384 Кбит/сек
Каналы : 6 каналов
Расположение каналов : Front: L C R, Side: L R, LFE
Частота : 48,0 КГц
Битовая глубина : 16 бит
Метод сжатия : С потерями
Размер потока : 55,8 Мбайт (5%)

Текст #1
Идентификатор : 189 (0xBD)-32 (0x20)
Формат : RLE
Формат/Информация : Run-length encoding
Режим смешивания : DVD-Video
Продолжительность : 20 м.
Задержка видео : 2 с. 400 мс.

Текст #2
Идентификатор : 189 (0xBD)-33 (0x21)
Формат : RLE
Формат/Информация : Run-length encoding
Режим смешивания : DVD-Video

Текст #3
Идентификатор : 189 (0xBD)-34 (0x22)
Формат : RLE
Формат/Информация : Run-length encoding
Режим смешивания : DVD-Video

Текст #4
Идентификатор : 189 (0xBD)-35 (0x23)
Формат : RLE
Формат/Информация : Run-length encoding
Режим смешивания : DVD-Video

Текст #5
Идентификатор : 189 (0xBD)-36 (0x24)
Формат : RLE
Формат/Информация : Run-length encoding
Режим смешивания : DVD-Video

Текст #6
Идентификатор : 189 (0xBD)-37 (0x25)
Формат : RLE
Формат/Информация : Run-length encoding
Режим смешивания : DVD-Video

Текст #7
Идентификатор : 189 (0xBD)-38 (0x26)
Формат : RLE
Формат/Информация : Run-length encoding
Режим смешивания : DVD-Video

Текст #8
Идентификатор : 189 (0xBD)-39 (0x27)
Формат : RLE
Формат/Информация : Run-length encoding
Режим смешивания : DVD-Video

Текст #9
Идентификатор : 189 (0xBD)-40 (0x28)
Формат : RLE
Формат/Информация : Run-length encoding
Режим смешивания : DVD-Video

Текст #10
Идентификатор : 189 (0xBD)-41 (0x29)
Формат : RLE
Формат/Информация : Run-length encoding
Режим смешивания : DVD-Video

Текст #11
Идентификатор : 189 (0xBD)-42 (0x2A)
Формат : RLE
Формат/Информация : Run-length encoding
Режим смешивания : DVD-Video

Текст #12
Идентификатор : 189 (0xBD)-43 (0x2B)
Формат : RLE
Формат/Информация : Run-length encoding
Режим смешивания : DVD-Video

Меню

Title: Tammy (2014) DVD5
Size: 4.35 Gb ( 4 556 816,00 KBytes ) - DVD-5
Enabled regions: 1, 2, 3, 4, 5, 6, 7, 8

VTS_01 :
Play Length: 01:32:48+00:00:00+00:00:00
Video: PAL 16:9 (720x576) VBR, Auto Letterboxed
Audio:
English (Dolby AC3, 6 ch)
Russian (Dolby AC3, 6 ch)
Subtitles:
English
Bulgarian
Hrvatski
Estonian
Latvian
Lithuanian
Polish
Russian
Serbian
Slovenian
Turkish
Ukrainian
Russian
Turkish

VTS_02 :
Play Length: 00:00:10
Video: PAL 16:9 (720x576) VBR, Auto Letterboxed
Audio:
Not specified (Dolby AC3, 6 ch)
Subtitles:
Not specified

Menus Information *

VIDEO_TS Menu
Video:
PAL 16:9 (720x576) VBR
Auto Pan&Scan
Language Unit :
Title Menu

VTS_01 Menu
Video:
PAL 16:9 (720x576) VBR
Auto Pan&Scan
Audio:
Not specified (Dolby AC3, 2 ch)
English Language Unit :
Root Menu

VTS_02 Menu
Video:
NTSC 4:3 (720x480) VBR
Auto Pan&Scan, Auto Letterboxed
Language Unit :
Root Menu












реклама партнёра


Вернуться к началу
 Профиль  
 
   Похожие торренты   Автор   Торрент   Размер 
В этой теме нет новых непрочитанных сообщений. Тэмми / Tammy [Театральная версия] [Комедия, 2014] HDRip, Mvo [Лицензия]

Dracon

118 | 8

1.47 ГБ

В этой теме нет новых непрочитанных сообщений. Тэмми / Tammy [Театральная версия] [Комедия, 2014] BDRip 720p, Mvo [Лицензия]

Dracon

4 | 2

6.03 ГБ

В этой теме нет новых непрочитанных сообщений. Тэмми / Tammy [Театральная версия] [Комедия, 2014] BDRip 1080p, Mvo [Лицензия]

Dracon

3 | 7

9.68 ГБ

В этой теме нет новых непрочитанных сообщений. Тэмми / Tammy [Комедия, 2014] WEB-DLRip, Mvo

Dracon

34 | 2

1.37 ГБ

В этой теме нет новых непрочитанных сообщений. Быстрее, чем кролики [комедия, 2014] DVD5 [Лицензия]

Dracon

1 | 2

4.08 ГБ

В этой теме нет новых непрочитанных сообщений. Весёлые ребята;) [Комедия, 2014] DVD5 [Лицензия]

Dracon

42 | 9

4.12 ГБ

В этой теме нет новых непрочитанных сообщений. Нереальная любовь [комедия, 2014] DVD5 [Лицензия]

Dracon

122 | 4

4.2 ГБ


Начать новую тему Ответить на тему  [ 1 сообщение ] 




Для Мосгорсуда, Роскомнадзора и рекламодателей:: mosgorsud-torrent[собачка]yandex.ru