Торрент файл
скачать торрент магнет ссылка Добавлен: 28 ноя 2014, 11:34
Размер: 4.03 ГБ
Сидеров: 3
Личеров: 3
Автор

СообщениеДобавлено: 28 ноя 2014, 11:34 

Не в сети
Зам. Админа
Аватара пользователя
Дата регистрации:
02 дек 2010, 12:39
Спасибо: 12460 / 214
Сообщения: 27968
Год выхода: 2014
Жанр: драма, мелодрама, комедия
Режиссер: Эндрю Флеминг
В ролях: Эван Рэйчел Вуд, Скотт Спидман, Трит Уильямс, Кейт Бёртон, Дж.К. Симмонс, Дж. Омар Кастро, Дэвид Дженсен, Жаклин Флеминг, Эшли Борман, Рики Уэйн

О фильме:
Джей — гуляка и дебошир. Он не удерживается ни на одном рабочем месте, а собственная семья считает его законченным неудачником. После очередной выходки его направляют «отдать долг обществу» — поработать уборщиком в клинике для душевнобольных. Там он знакомится с пациенткой Дэйзи — обаятельной девушкой, которая выглядит вполне нормальной, но совершенно не адаптирована к окружающей действительности. Девушка быстро привязывается к Джею и даже сбегает вслед за ним из клиники. Теперь Джей должен решить, как быть дальше. С одной стороны у него есть приглашение на свадьбу брата, где его ждут вместе с девушкой, которой у него нет, с другой — Дэйзи, которая ни на шаг от него не отходит. Джей решается на аферу и отправляется на свадьбу вместе с Дэйзи…

Качество: DVD-5
Видео: MPEG-2, 720x576@1024х576, (PAL 16:9), 25 fps, 6000 Kbit/s
Аудио: АС3, 48000 Hz, 6 каналов, 448 kbit/s
Продолжительность: 01:29:32
Перевод: Профессиональный (многоголосный) [лицензия]

E Documents and SettingsAdminМои документыЗагрузкиБосиком по городу  Barefoot (2014) DVD-5VIDEO_TSVTS_02_1.VOB
   General
      Complete name : E Documents and SettingsAdminМои документыЗагрузкиБосиком по городу  Barefoot (2014) DVD-5VIDEO_TSVTS_02_1.VOB
      Format : MPEG-PS
      File size : 1 024 MiB
      Duration : 21mn 46s
      Overall bit rate : 6 572 Kbps
   Video #224
      ID : 224 (0xE0)
      Format : MPEG Video
      Format version : Version 2
      Format profile : Main@Main
      Format settings, BVOP : Yes
      Format settings, Matrix : Default
      Format settings, GOP : M=3, N=12
      Duration : 21mn 46s
      Bit rate : 6 000 Kbps
      Width : 720 pixels
      Height : 576 pixels
      Display aspect ratio : 16:9
      Frame rate : 25.000 fps
      Standard : PAL
      Color space : YUV
      Chroma subsampling : 4:2:0
      Bit depth : 8 bits
      Scan type : Interlaced
      Scan order : Top Field First
      Compression mode : Lossy
      Bits/(Pixel*Frame) : 0.579
      Time code of first frame : 00:00:00:00
      Time code source : Group of pictures header
      Stream size : 934 MiB (91%)
   Audio #189-128
      ID : 189 (0xBD)-128 (0x80)
      Format : AC-3
      Format/Info : Audio Coding 3
      Mode extension : CM (complete main)
      Format settings, Endianness : Big
      Muxing mode : DVD-Video
      Duration : 21mn 46s
      Bit rate mode : Constant
      Bit rate : 448 Kbps
      Channel(s) : 6 channels
      Channel positions : Front: L C R, Side: L R, LFE
      Sampling rate : 48.0 KHz
      Bit depth : 16 bits
      Compression mode : Lossy
      Delay relative to video : -80ms
      Stream size : 69.8 MiB (7%)








реклама партнёра


Вернуться к началу
 Профиль  
 
   Похожие торренты   Автор   Торрент   Размер 
В этой теме нет новых непрочитанных сообщений. Босиком / Barefoot [драма, мелодрама, комедия, 2014] WEB-DLRip, Mvo [Лицензия]

Dracon

23 | 5

1.46 ГБ

В этой теме нет новых непрочитанных сообщений. Босиком / Barefoot [драма, мелодрама, комедия, 2014] WEB-DL 1080p, Mvo+Sub [Лицензия]

Dracon

8 | 3

2.97 ГБ

В этой теме нет новых непрочитанных сообщений. Босиком / Barefoot [драма, мелодрама, комедия, 2014] WEB-DL 720p, Mvo+Sub [Лицензия]

Dracon

5 | 4

3.1 ГБ

В этой теме нет новых непрочитанных сообщений. Босиком по парку / Barefoot in the Park [комедия, мелодрама, 1967] DVDRip, Mvo

salma3

3 | 2

1.45 ГБ

В этой теме нет новых непрочитанных сообщений. А вот и она / And So It Goes [Драма, мелодрама, Комедия, 2014] DVD5, Dub [Лицензия]

Dracon

32 | 3

3.96 ГБ

В этой теме нет новых непрочитанных сообщений. Помпеи / Pompeii [приключения, боевик, драма, мелодрама, 2014] DVD5, Dub [Лицензия]

Dracon

71 | 7

4.17 ГБ

В этой теме нет новых непрочитанных сообщений. Голгофа / Calvary [Драма, комедия, 2014] DVD5, Mvo+Sub [Лицензия]

Dracon

59 | 6

4.37 ГБ


Начать новую тему Ответить на тему  [ 1 сообщение ] 




Для Мосгорсуда, Роскомнадзора и рекламодателей:: mosgorsud-torrent[собачка]yandex.ru