Торрент файл
скачать торрент магнет ссылка Добавлен: 27 ноя 2014, 12:40
Размер: 7.28 ГБ
Сидеров: 2
Личеров: 6
Автор

СообщениеДобавлено: 27 ноя 2014, 12:40 

В сети
Супермодератор
Аватара пользователя
Дата регистрации:
15 фев 2012, 16:44
Возраст: 27
Спасибо: 5136 / 2089
Сообщения: 17411
Год выхода: 1970
Жанр: Вестерн
Режиссер: Антонио Маргерити

В ролях: Клаус Кински, Петер Карстен, Марчелла Микеланджели, Гуидо Лоллобриджида, Антонио Кантафора, Джулиано Раффаелли, Лучано Пигоцци, Лучио Де Сантис, Мария Луиза Сала, Хоакин Бланко

О фильме: Гарри Хэмилтон, армейский офицер, несправедливо обвинён в грабеже и посажен за решётку. Десять лет спустя он возвращается в родной город, чтобы призвать лжесвидетеля к ответу, и обнаруживает, что за эти годы тот стал весьма влиятельным человеком.


Страна: Италия, Германия (ФРГ)
Студия: Peter Carsten Produktion
Продолжительность: 01:36:18
Перевод: Любительский одноголосый (den904)

Файл
Кодек: MPEG-2
Качество: DVD-9
Видео: MPEG2, PAL, 16:9 (720x576) VBR, 25 кадр/с
Звук: Русский / Английский / Немецкий / Итальянский DD 2.0 (192Kbps)

Title:
Size: 7.28 Gb ( 7 635 626 KBytes ) - DVD-9
Enabled regions: 1, 2, 3, 4, 5, 6, 7, 8

VTS_01 :
Play Length: 00:00:21
Video: PAL 16:9 (720x576) VBR, Auto Pan&Scan
Audio:
Deutsch (Dolby AC3, 6 ch)
Subtitles:
Deutsch
Deutsch

VTS_02 :
Play Length: 00:02:37
Video: PAL 4:3 (720x576) VBR
Audio:
Deutsch (Dolby AC3, 2 ch)

VTS_03 :
Play Length: 00:02:16
Video: PAL 4:3 (720x576) VBR
Audio:
Deutsch (Dolby AC3, 2 ch)

VTS_04 :
Play Length: 00:03:26
Video: PAL 16:9 (720x576) VBR, Auto Pan&Scan
Audio:
Deutsch (Dolby AC3, 2 ch)

VTS_05 :
Play Length: 00:00:17+01:36:01
Video: PAL 16:9 (720x576) VBR, Auto Pan&Scan
Audio:
Italiano (Dolby AC3, 2 ch)
Deutsch (Dolby AC3, 2 ch)
English (Dolby AC3, 2 ch)
Russian (Dolby AC3, 2 ch)
Subtitles:
Russian
Russian
English

VTS_06 :
Play Length: 00:02:43
Video: PAL 4:3 (720x576) VBR
Audio:
Deutsch (Dolby AC3, 2 ch)

VTS_07 :
Play Length: 00:01:54+00:01:42+00:01:30
Video: PAL 16:9 (720x576) VBR, Auto Pan&Scan
Audio:
Deutsch (Dolby AC3, 2 ch)

VTS_08 :
Play Length: 00:00:12
Video: PAL 16:9 (720x576) VBR, Auto Pan&Scan
Subtitles:
Deutsch
Deutsch

VTS_09 :
Play Length: 00:00:09
Video: PAL 16:9 (720x576) VBR, Auto Pan&Scan
Subtitles:
Deutsch
Deutsch

VTS_10 :
Play Length: 00:03:05
Video: PAL 4:3 (720x576) VBR
Audio:
Deutsch (Dolby AC3, 2 ch)

Menu Video:
PAL 16:9 (720x576) VBR
Auto Pan&Scan
Menu Audio:
Not specified (Dolby AC3, 2 ch)
Menu Subtitles:
Not specified
Menu Deutsch Language Unit :
Root Menu
Общее
Полное имя : D:ААА2И сказал Господь КаинуVIDEO_TSVTS_05_1.VOB
Формат : MPEG-PS
Размер файла : 1024 Мбайт
Продолжительность : 15 м.
Режим общего битрейта : Переменный
Общий поток : 9196 Кбит/сек

Видео
Идентификатор : 224 (0xE0)
Формат : MPEG Video
Версия формата : Version 2
Профиль формата : Main@Main
Параметр BVOP формата : Да
Параметр матрицы формата : Выборочная
Параметр GOP формата : M=3, N=12
Продолжительность : 15 м.
Вид битрейта : Переменный
Битрейт : 8200 Кбит/сек
Ширина : 720 пикселей
Высота : 576 пикселей
Соотношение сторон : 16:9
Частота кадров : 25,000 кадров/сек
Стандарт вещания : PAL
Цветовое пространство : YUV
Субдискретизация насыщенности : 4:2:0
Битовая глубина : 8 бит
Тип развёртки : Чересстрочная
Порядок развёртки : Верхнее поле первое
Метод сжатия : С потерями
Бит/(Пиксели*Кадры) : 0.791
TimeCode_FirstFrame : 09:59:59:00
TimeCode_Source : Group of pictures header
Размер потока : 911 Мбайт (89%)

Аудио #1
Идентификатор : 189 (0xBD)-128 (0x80)
Формат : AC-3
Формат/Информация : Audio Coding 3
Расширение режима : CM (complete main)
Параметр Endianness формата : Big
Режим смешивания : DVD-Video
Продолжительность : 15 м.
Вид битрейта : Постоянный
Битрейт : 192 Кбит/сек
Каналы : 2 канала
Расположение каналов : Front: L R
Частота : 48,0 КГц
Битовая глубина : 16 бит
Метод сжатия : С потерями
Задержка видео : -80 мс.
Размер потока : 21,4 Мбайт (2%)

Аудио #2
Идентификатор : 189 (0xBD)-129 (0x81)
Формат : AC-3
Формат/Информация : Audio Coding 3
Расширение режима : CM (complete main)
Параметр Endianness формата : Big
Режим смешивания : DVD-Video
Продолжительность : 15 м.
Вид битрейта : Постоянный
Битрейт : 192 Кбит/сек
Каналы : 2 канала
Расположение каналов : Front: L R
Частота : 48,0 КГц
Битовая глубина : 16 бит
Метод сжатия : С потерями
Задержка видео : -80 мс.
Размер потока : 21,4 Мбайт (2%)

Аудио #3
Идентификатор : 189 (0xBD)-130 (0x82)
Формат : AC-3
Формат/Информация : Audio Coding 3
Расширение режима : CM (complete main)
Параметр Endianness формата : Big
Режим смешивания : DVD-Video
Продолжительность : 15 м.
Вид битрейта : Постоянный
Битрейт : 256 Кбит/сек
Каналы : 2 канала
Расположение каналов : Front: L R
Частота : 48,0 КГц
Битовая глубина : 16 бит
Метод сжатия : С потерями
Задержка видео : -80 мс.
Размер потока : 28,5 Мбайт (3%)

Аудио #4
Идентификатор : 189 (0xBD)-131 (0x83)
Формат : AC-3
Формат/Информация : Audio Coding 3
Расширение режима : CM (complete main)
Параметр Endianness формата : Big
Режим смешивания : DVD-Video
Продолжительность : 15 м.
Вид битрейта : Постоянный
Битрейт : 192 Кбит/сек
Каналы : 2 канала
Расположение каналов : Front: L R
Частота : 48,0 КГц
Битовая глубина : 16 бит
Метод сжатия : С потерями
Задержка видео : -80 мс.
Размер потока : 21,4 Мбайт (2%)

Текст #1
Идентификатор : 189 (0xBD)-32 (0x20)
Формат : RLE
Формат/Информация : Run-length encoding
Режим смешивания : DVD-Video

Текст #2
Идентификатор : 189 (0xBD)-33 (0x21)
Формат : RLE
Формат/Информация : Run-length encoding
Режим смешивания : DVD-Video

Текст #3
Идентификатор : 189 (0xBD)-34 (0x22)
Формат : RLE
Формат/Информация : Run-length encoding
Режим смешивания : DVD-Video

Меню


_________________



реклама партнёра


Вернуться к началу
 Профиль Отправить личное сообщение  
 
   Похожие торренты   Автор   Торрент   Размер 
В этой теме нет новых непрочитанных сообщений. И сказал Господь Каину / E Dio disse a Caino [Вестерн, 1970] DVDRip, Avo

salma3

41 | 9

1.46 ГБ

В этой теме нет новых непрочитанных сообщений. Пятеро дикарей / The Animals [вестерн, 1970] DVDRip, Avo

salma3

277 | 33

1.38 ГБ

В этой теме нет новых непрочитанных сообщений. Пушка для Кордоба / Cannon for Cordoba [вестерн, 1970] DVDRip, Dvo [НТВ+]

salma3

7 | 3

1.37 ГБ

В этой теме нет новых непрочитанных сообщений. Монти Уолш / Monte Walsh [вестерн, 1970] HDRip, Avo+Sub

salma3

95 | 9

1.37 ГБ

В этой теме нет новых непрочитанных сообщений. Хлопающий крыльями / Flap [драма, комедия, вестерн, 1970] DVDRip, Avo

salma3

10 | 6

1.46 ГБ

В этой теме нет новых непрочитанных сообщений. Человек по имени Апокалипсис Джо / Un uomo chiamato Apocalisse Joe [Вестерн, 1970] DVDRip, Mvo

salma3

10 | 6

1.37 ГБ

В этой теме нет новых непрочитанных сообщений. Напарники / Vamos a matar, companeros [вестерн, комедия, боевик, 1970] DVDRip, Mvo

salma3

54 | 5

1.46 ГБ


Начать новую тему Ответить на тему  [ 1 сообщение ] 




Для Мосгорсуда, Роскомнадзора и рекламодателей:: mosgorsud-torrent[собачка]yandex.ru