Торрент файл
скачать торрент магнет ссылка Добавлен: 19 ноя 2014, 23:49
Размер: 5 ГБ
Сидеров: 0
Личеров: 6
Статус: (salma3)
Автор

СообщениеДобавлено: 19 ноя 2014, 23:49 

Не в сети
Супермодератор
Аватара пользователя
Дата регистрации:
15 фев 2012, 16:44
Возраст: 27
Спасибо: 5143 / 2090
Сообщения: 17513
Джек-попрыгунчик / Jumpin' Jack Flash

Год выпуска: 1986
Жанр: триллер, комедия, мелодрама
Режиссер: Пенни Маршалл | Penny Marshall

В ролях: Вупи Голдберг, Стивен Коллинз, Джон Вуд, Кэрол Кейн, Энни Поттс, Питер Майкл Гец, Роско Ли Браун, Сара Ботсфорд, Ерун Краббе, Вито Руджинис

Описание:
Терри работает программисткой в банке. Эта скучная нудная работа абсолютно не подходит темпераменту веселой чернокожей матерщиннице.
Но все меняется, когда она получает таинственное закодированное послание. Расшифровав письмо, Терри оказывается с головой втянута в запутанную и очень опасную шпионскую игру

Страна: США
Продолжительность: 01:41:15
Перевод: Профессиональный (многоголосый, закадровый)
Субтитры: английские, русские, украинские

Файл
Качество: DVD5
Формат файла: DVD Video
Видео кодек: MPEG2
Аудио кодек: AC3
Видео: 720x576, (PAL 16:9), MPEG2 Video, 25.000 fps, ~ 6144 Kbps, 0.593 Bits/(Pixel*Frame)
Аудио#1: Русский 48 KHz, (AC3), 6 ch, ~ 448 Kbps [многоголосый]
Аудио#2: Английский 48 KHz, (АС3), 6 ch, ~ 448 Kbps [Оригинал]


General
Complete name : D:\Джек-попрыгунчик\VIDEO_TS\VTS_01_1.VOB
Format : MPEG-PS
File size : 1 024 MiB
Duration : 19mn 55s
Overall bit rate mode : Variable
Overall bit rate : 7 183 Kbps

Video
ID : 224 (0xE0)
Format : MPEG Video
Format version : Version 2
Format profile : Main@Main
Format settings, BVOP : Yes
Format settings, Matrix : Custom
Format settings, GOP : M=3, N=15
Duration : 19mn 55s
Bit rate mode : Variable
Bit rate : 6 144 Kbps
Maximum bit rate : 7 500 Kbps
Width : 720 pixels
Height : 576 pixels
Display aspect ratio : 16:9
Frame rate : 25.000 fps
Standard : PAL
Color space : YUV
Chroma subsampling : 4:2:0
Bit depth : 8 bits
Scan type : Interlaced
Scan order : Top Field First
Compression mode : Lossy
Bits/(Pixel*Frame) : 0.593
Time code of first frame : 00:59:58:00
Time code source : Group of pictures header
Stream size : 876 MiB (86%)

Audio #1
ID : 189 (0xBD)-128 (0x80)
Format : AC-3
Format/Info : Audio Coding 3
Mode extension : CM (complete main)
Format settings, Endianness : Big
Muxing mode : DVD-Video
Duration : 19mn 55s
Bit rate mode : Constant
Bit rate : 448 Kbps
Channel(s) : 6 channels
Channel positions : Front: L C R, Side: L R, LFE
Sampling rate : 48.0 KHz
Bit depth : 16 bits
Compression mode : Lossy
Delay relative to video : -80ms
Stream size : 63.9 MiB (6%)

Audio #2
ID : 189 (0xBD)-129 (0x81)
Format : AC-3
Format/Info : Audio Coding 3
Mode extension : CM (complete main)
Format settings, Endianness : Big
Muxing mode : DVD-Video
Duration : 19mn 55s
Bit rate mode : Constant
Bit rate : 448 Kbps
Channel(s) : 6 channels
Channel positions : Front: L C R, Side: L R, LFE
Sampling rate : 48.0 KHz
Bit depth : 16 bits
Compression mode : Lossy
Delay relative to video : -80ms
Stream size : 63.9 MiB (6%)

Text #1
ID : 189 (0xBD)-33 (0x21)
Format : RLE
Format/Info : Run-length encoding
Muxing mode : DVD-Video
Duration : 19mn 48s
Delay relative to video : 5s 560ms

Text #2
ID : 189 (0xBD)-34 (0x22)
Format : RLE
Format/Info : Run-length encoding
Muxing mode : DVD-Video
Duration : 19mn 48s
Delay relative to video : 5s 560ms

Text #3
ID : 189 (0xBD)-32 (0x20)
Format : RLE
Format/Info : Run-length encoding
Muxing mode : DVD-Video

Menu













_________________



реклама партнёра


Вернуться к началу
 Профиль Отправить личное сообщение  
 
   Похожие торренты   Автор   Торрент   Размер 
В этой теме нет новых непрочитанных сообщений. Джек-попрыгунчик / Jumpin' Jack Flash [триллер, мелодрама, комедия, 1986] BDRip 720p, Mvo

salma3

18 | 2

6.79 ГБ

В этой теме нет новых непрочитанных сообщений. Джек Райан: Теория хаоса / Jack Ryan: Shadow Recruit [боевик, триллер, детектив, 2014] DVD9, Dub+Sub [Лицензия]

salma3

46 | 2

6.44 ГБ

В этой теме нет новых непрочитанных сообщений. Джек и Сара / Jack & Sarah [Комедия, мелодрама, драма, 1995] HDTVRip, Dvo [НТВ+]

salma3

28 | 3

1.46 ГБ

В этой теме нет новых непрочитанных сообщений. Разведенный Джек / Divorcing Jack [триллер, комедия, 1998] DVDRip, Dvo

salma3

97 | 19

1.37 ГБ

В этой теме нет новых непрочитанных сообщений. Под псевдонимом: Джек Стронг / Джек Стронг / Jack Strong (Владислав Пасиковский) [2014, Шпионский триллер, BDRip-AVC]

Nickolas3435

277 | 7

2.4 ГБ

В этой теме нет новых непрочитанных сообщений. Под псевдонимом: Джек Стронг / Джек Стронг / Jack Strong [боевик, драма, криминал, детектив, биография, 2014] HDRip, Avo

salma3

269 | 6

1.37 ГБ

В этой теме нет новых непрочитанных сообщений. Джек - Молния / Lightning Jack [комедия, вестерн, 1994] DVDRip, Avo

salma3

38 | 2

1.38 ГБ


Начать новую тему Ответить на тему  [ 1 сообщение ] 




Для Мосгорсуда, Роскомнадзора и рекламодателей:: mosgorsud-torrent[собачка]yandex.ru