Торрент файл
скачать торрент магнет ссылка Добавлен: 19 ноя 2014, 23:44
Размер: 4.04 ГБ
Сидеров: 8
Личеров: 5
Статус: (salma3)
Автор

СообщениеДобавлено: 19 ноя 2014, 23:44 

Не в сети
Супермодератор
Аватара пользователя
Дата регистрации:
15 фев 2012, 16:44
Возраст: 27
Спасибо: 5143 / 2090
Сообщения: 17514
Флюк / Fluke

Год выпуска: 1995
Жанр: фэнтези, драма, семейный
Режиссер: Карло Карлей

В ролях: Сэмюэл Л. Джексон, Мэттью Модайн, Нэнси Трэвис, Эрик Штольц, Макс Померанц, Рон Перлман, Джон Полито, Билл Коббс, Коллин Уилкокс Пэкстон, Федерико Пачифичи

Описание:
Душа погибшего в автомобильной катастрофе молодого человека переселяется в очаровательного новорожденного щенка. Постепенно вырастая, он находит свою семью и вспоминает прошлую жизнь. Как выясняется, он не всегда был прав, когда был человеком.

Страна: США
Продолжительность: 01:31:33
Перевод: Профессиональный (полное дублирование)
Cубтитры: французские, испанские

Файл
Качество: DVD5
Формат файла: DVD Video
Видео кодек: MPEG2
Аудио кодек: AC3
Видео: 720x480 (NTSC 4:3), MPEG2 Video, 29.970 fps, ~ 4 762 Kbps, 0.460 Bits/(Pixel*Frame)
Аудио1: Русский: 48.0 KHz, (AC-3), 2 ch, ~ 192 Kbps avg [полное дублирование]
Аудио2: Английский: 48.0 KHz, (AC-3), 2 ch, ~ 192 Kbps avg [Оригинал]
Аудио3: Испанский: 48.0 KHz, (AC-3), 2 ch, ~ 192 Kbps avg


General
Complete name : G:\Флюк\VIDEO_TS\VTS_06_1.VOB
Format : MPEG-PS
File size : 1 024 MiB
Duration : 26mn 17s
Overall bit rate mode : Variable
Overall bit rate : 5 446 Kbps

Video
ID : 224 (0xE0)
Format : MPEG Video
Format version : Version 2
Format profile : Main@Main
Format settings, BVOP : Yes
Format settings, Matrix : Custom
Format settings, GOP : Variable
Duration : 26mn 17s
Bit rate mode : Variable
Bit rate : 4 762 Kbps
Width : 720 pixels
Height : 480 pixels
Display aspect ratio : 4:3
Frame rate : 29.970 fps
Standard : NTSC
Color space : YUV
Chroma subsampling : 4:2:0
Bit depth : 8 bits
Compression mode : Lossy
Bits/(Pixel*Frame) : 0.460
Time code of first frame : 00:00:00;00
Time code source : Group of pictures header
Stream size : 895 MiB (87%)
Color primaries : BT.601 NTSC
Transfer characteristics : BT.601
Matrix coefficients : BT.601

Audio #1
ID : 189 (0xBD)-128 (0x80)
Format : AC-3
Format/Info : Audio Coding 3
Mode extension : CM (complete main)
Format settings, Endianness : Big
Muxing mode : DVD-Video
Duration : 26mn 16s
Bit rate mode : Constant
Bit rate : 192 Kbps
Channel(s) : 2 channels
Channel positions : Front: L R
Sampling rate : 48.0 KHz
Bit depth : 16 bits
Compression mode : Lossy
Stream size : 36.1 MiB (4%)

Audio #2
ID : 189 (0xBD)-129 (0x81)
Format : AC-3
Format/Info : Audio Coding 3
Format profile : Dolby Digital
Mode extension : CM (complete main)
Format settings, Endianness : Big
Muxing mode : DVD-Video
Duration : 26mn 16s
Bit rate mode : Constant
Bit rate : 192 Kbps
Channel(s) : 2 channels
Channel positions : Front: L R
Sampling rate : 48.0 KHz
Bit depth : 16 bits
Compression mode : Lossy
Stream size : 36.1 MiB (4%)

Audio #3
ID : 189 (0xBD)-130 (0x82)
Format : AC-3
Format/Info : Audio Coding 3
Mode extension : CM (complete main)
Format settings, Endianness : Big
Muxing mode : DVD-Video
Duration : 26mn 16s
Bit rate mode : Constant
Bit rate : 192 Kbps
Channel(s) : 2 channels
Channel positions : Front: L R
Sampling rate : 48.0 KHz
Bit depth : 16 bits
Compression mode : Lossy
Stream size : 36.1 MiB (4%)

Text
ID : 224 (0xE0)-CC3
Format : EIA-608
Muxing mode, more info : Muxed in Video #1
Bit rate mode : Constant
Stream size : 0.00 Byte (0%)

Menu











_________________



реклама партнёра


Вернуться к началу
 Профиль Отправить личное сообщение  
 
   Похожие торренты   Автор   Торрент   Размер 
В этой теме нет новых непрочитанных сообщений. Джуманджи / Jumanji [семейный, фэнтези, приключения, 1995] BDRip, Dub [Лицензия]

salma3

172 | 14

1.46 ГБ

В этой теме нет новых непрочитанных сообщений. Каспер / Casper [Фэнтези, комедия, семейный, 1995] BDRip 1080p, 2Dvo+2mvo+3Avo+Sub

salma3

46 | 8

9.69 ГБ

В этой теме нет новых непрочитанных сообщений. Каспер / Casper [Фэнтези, комедия, семейный, 1995] BDRemux 1080p, 2Dvo+2mvo+3Avo+Sub

salma3

12 | 5

29.9 ГБ

В этой теме нет новых непрочитанных сообщений. Феникс и волшебный ковер / The Phoenix and the Magic Carpet [фэнтези, приключения, семейный, 1995] DVDRip, Mvo

salma3

53 | 9

1.46 ГБ

В этой теме нет новых непрочитанных сообщений. Voodoo Six - Fluke? [2010, Hard Rock, MP3]

PriZraK

0 | 1

113.59 МБ

В этой теме нет новых непрочитанных сообщений. Малефисента / Maleficent [фэнтези, мелодрама, приключения, семейный, 2014] DVD5, Dub+Sub [лицензия]

Dracon

126 | 18

4.37 ГБ

В этой теме нет новых непрочитанных сообщений. Алиса в Зазеркалье / Alice Through the Looking Glass [Фэнтези, приключения, семейный, 2016] DVD5, Dub

salma3

45 | 27

4.37 ГБ


Начать новую тему Ответить на тему  [ 1 сообщение ] 




Для Мосгорсуда, Роскомнадзора и рекламодателей:: mosgorsud-torrent[собачка]yandex.ru