Торрент файл
скачать торрент магнет ссылка Добавлен: 19 ноя 2014, 23:39
Размер: 3.83 ГБ
Сидеров: 8
Личеров: 5
Статус: (salma3)
Автор

СообщениеДобавлено: 19 ноя 2014, 23:39 

Не в сети
Супермодератор
Аватара пользователя
Дата регистрации:
15 фев 2012, 16:44
Возраст: 28
Спасибо: 6569 / 2137
Сообщения: 43761
Саботаж / Sabotage

Год выпуска: 1996
Жанр: боевик, триллер, драма
Режиссер: Тибор Такач

В ролях: Марк Дакаскос, Кэрри-Энн Мосс, Тони Тодд, Грэм Грин, Джон Невилл, Джеймс Пурселл, Ричард Култер, Джон Пол Янг

Описание:
Бывший морской пехотинец Майк Бишоп участвует в провальной операции по спасению заложников. Получив 7 ранений от руки профессионального убийцы, Бишоп чудом остается жив…
Несколько лет спустя семья, в которой Бишоп работает телохранителем, становится жертвой того же убийцы. Объединившись со спецагентом ФБР, Бишоп вступает в смертельную схватку с суперкиллером, и ничьей в этой борьбе быть не может…



Страна: Канада
Продолжительность: 01:39:02
Перевод: Профессиональный (многоголосый, закадровый)

Файл
Качество: DVD5
Формат файла: DVD Video
Видео кодек: MPEG2
Аудио кодек: AC3
Видео: 720x576 (4:3), 25,000 fps, MPEG 2 Video ~ 4687kbps avg, 0.452 bit/pixel
Аудио1: Русский: 48.0 kHz, AC3, (Front: L C R, Side: L R, LFE) , 6 ch ~384Kbps avg [многоголосый]
Аудио2: Английский: 48.0 kHz, AC3, (Front: L C R, Side: L R, LFE) , 6 ch ~384Kbps avg [Оригинал]

Доп. информация: Меню отсутствует

Общее
Полное имя : D:\Downloads\sabotage\VIDEO_TS\VTS_01_1.VOB
Формат : MPEG-PS
Размер файла : 1024 Мбайт
Продолжительность : 25 м.
Режим общего битрейта : Переменный
Общий поток : 5565 Кбит/сек

Видео
Идентификатор : 224 (0xE0)
Формат : MPEG Video
Версия формата : Version 2
Профиль формата : Main@Main
Параметр BVOP формата : Да
Параметр матрицы формата : Выборочная
Параметр GOP формата : M=3, N=15
Продолжительность : 25 м.
Вид битрейта : Переменный
Битрейт : 4687 Кбит/сек
Максимальный битрейт : 5130 Кбит/сек
Ширина : 720 пикселей
Высота : 576 пикселей
Соотношение сторон : 4:3
Частота кадров : 25,000 кадров/сек
Стандарт вещания : PAL
Цветовое пространство : YUV
Субдискретизация насыщенности : 4:2:0
Битовая глубина : 8 бит
Тип развёртки : Чересстрочная
Порядок развёртки : Верхнее поле первое
Метод сжатия : С потерями
Бит/(Пиксели*Кадры) : 0.452
Размер потока : 862 Мбайт (84%)

Аудио #1
Идентификатор : 189 (0xBD)-128 (0x80)
Формат : AC-3
Формат/Информация : Audio Coding 3
Расширение режима : CM (complete main)
Параметр Endianness формата : Big
Режим смешивания : DVD-Video
Продолжительность : 25 м.
Вид битрейта : Постоянный
Битрейт : 384 Кбит/сек
Каналы : 6 каналов
Расположение каналов : Front: L C R, Side: L R, LFE
Частота : 48,0 КГц
Битовая глубина : 16 бит
Метод сжатия : С потерями
Задержка видео : -80 мс.
Размер потока : 70,6 Мбайт (7%)

Аудио #2
Идентификатор : 189 (0xBD)-129 (0x81)
Формат : AC-3
Формат/Информация : Audio Coding 3
Расширение режима : CM (complete main)
Параметр Endianness формата : Big
Режим смешивания : DVD-Video
Продолжительность : 25 м.
Вид битрейта : Постоянный
Битрейт : 384 Кбит/сек
Каналы : 6 каналов
Расположение каналов : Front: L C R, Side: L R, LFE
Частота : 48,0 КГц
Битовая глубина : 16 бит
Метод сжатия : С потерями
Задержка видео : -80 мс.
Размер потока : 70,6 Мбайт (7%)

Текст
Идентификатор : 189 (0xBD)-32 (0x20)
Формат : RLE
Формат/Информация : Run-length encoding
Режим смешивания : DVD-Video

Меню






_________________
Проголосуй за трекер Открытый торрент трекер - RUS-MEDIA.ORG

Проголосуй Открытый торрент трекер - RUS-MEDIA.ORG



реклама партнёра


Вернуться к началу
 Профиль Отправить личное сообщение  
 
   Похожие торренты   Автор   Торрент   Размер 
В этой теме нет новых непрочитанных сообщений. Саботаж / Sabotage [Боевик, триллер, драма, 1996] BDRip, Dvo [R5]

salma3

72 | 5

1.46 ГБ

В этой теме нет новых непрочитанных сообщений. Саботаж / Sabotage [Боевик, триллер, драма, 1996] BDRip 720p, Dvo

salma3

59 | 2

3.39 ГБ

В этой теме нет новых непрочитанных сообщений. Мерцающий / The Glimmer Man [боевик, триллер, драма, 1996] WEB-DL 1080p, Dub

salma3

12 | 3

7.44 ГБ

В этой теме нет новых непрочитанных сообщений. Фанат / The Fan [боевик, триллер, драма, спорт, 1996] HDRip, Mvo

salma3

17 | 5

1.45 ГБ

В этой теме нет новых непрочитанных сообщений. Стиратель / Eraser [боевик, триллер, драма, детектив, 1996] HDRip-AVC, Dub

salma3

95 | 25

1.47 ГБ

В этой теме нет новых непрочитанных сообщений. Под прицелом / Silent Trigger [боевик, триллер, драма, 1996] HDRip, Dvo+Avo

salma3

101 | 5

1.46 ГБ

В этой теме нет новых непрочитанных сообщений. Под прицелом / Silent Trigger [боевик, триллер, драма, 1996] HDRip, Avo

salma3

70 | 3

743.09 МБ


Начать новую тему Ответить на тему  [ 1 сообщение ] 




Для Мосгорсуда, Роскомнадзора и рекламодателей:: mosgorsud-torrent[собачка]yandex.ru