Торрент файл
скачать торрент магнет ссылка Добавлен: 19 ноя 2014, 23:34
Размер: 3.65 ГБ
Сидеров: 8
Личеров: 4
Статус: (salma3)
Автор

СообщениеДобавлено: 19 ноя 2014, 23:34 

Не в сети
Супермодератор
Аватара пользователя
Дата регистрации:
15 фев 2012, 16:44
Возраст: 27
Спасибо: 5121 / 2089
Сообщения: 17282
Жаркий день / Scorcher

Год выпуска: 2002
Жанр: фантастика, боевик, триллер
Режиссер: Джеймс Сил

В ролях: Марк Дакаскос, Джон Рис-Дэвис, Тамара Дэвис, Дж. У. Бейли, Марк Ролстон, Райян Маркус, Рутгер Хауэр, Томас Ф. Даффи, Сэм Ллойд, Майкл Джейс

Описание: Американская нация снова спасает мир. В результате наплевательского отношения к матери-Земле человечество рискует сгореть заживо, в прямом смысле этого слова. Американскими учеными-сейсмологами во время очередной экспедиции выявлена сильно повышенная сейсмическая и вулканическая активность. В общем горят даже шельфовые ледники. А причиной этому явилось, пришедшее в движение Тихоокеанское плато, которое нужно остановить, и времени на это очень мало.

По приказу президента США группа в составе: лучшего сейсмолога в мире Джулии Макграф, полковника Беккета, ну и само собой группы поддержки, должны осуществить сей дерзкий план… А каким способом-надо смотреть…



Страна: США
Продолжительность: 01:27:41
Перевод: Профессиональный (многоголосый, закадровый)

Файл
Качество: DVD5
Формат файла: DVD Video
Видео кодек: MPEG2
Аудио кодек: AC3
Видео: 720x576i (4:3), 25 fps, MPEG-2 Video, ~ 5989 kbps avg, 0.578 bit/pixel
Аудио: Русский: 48.0 kHz, AC3, (Front: L R) , 2 ch ~192 kbps avg [многоголосый]

Общее
Полное имя : C:\Жаркий день\VIDEO_TS\VTS_02_1.VOB
Формат : MPEG-PS
Размер файла : 1024 Мбайт
Продолжительность : 22 м.
Режим общего битрейта : Переменный
Общий поток : 6306 Кбит/сек

Видео
Идентификатор : 224 (0xE0)
Формат : MPEG Video
Версия формата : Version 2
Профиль формата : Main@Main
Параметр BVOP формата : Да
Параметр матрицы формата : Выборочная
Продолжительность : 22 м.
Вид битрейта : Переменный
Битрейт : 5989 Кбит/сек
Максимальный битрейт : 8000 Кбит/сек
Ширина : 720 пикселей
Высота : 576 пикселей
Соотношение сторон : 4:3
Частота кадров : 25,000 кадров/сек
Стандарт вещания : PAL
Цветовое пространство : YUV
Субдискретизация насыщенности : 4:2:0
Битовая глубина : 8 бит
Тип развёртки : Чересстрочная
Порядок развёртки : Верхнее поле первое
Метод сжатия : С потерями
Бит/(Пиксели*Кадры) : 0.578
Размер потока : 972 Мбайт (95%)

Аудио
Идентификатор : 189 (0xBD)-128 (0x80)
Формат : AC-3
Формат/Информация : Audio Coding 3
Расширение режима : CM (complete main)
Параметр Endianness формата : Big
Режим смешивания : DVD-Video
Продолжительность : 22 м.
Вид битрейта : Постоянный
Битрейт : 192 Кбит/сек
Каналы : 2 канала
Расположение каналов : Front: L R
Частота : 48,0 КГц
Битовая глубина : 16 бит
Метод сжатия : С потерями
Размер потока : 31,2 Мбайт (3%)

Меню















_________________



реклама партнёра


Вернуться к началу
 Профиль Отправить личное сообщение  
 
   Похожие торренты   Автор   Торрент   Размер 
В этой теме нет новых непрочитанных сообщений. Антитело / Antibody [Триллер, ужасы, фантастика, боевик, 2002] DVDRip, Mvo

salma3

53 | 5

1.46 ГБ

В этой теме нет новых непрочитанных сообщений. Питоны 2 / Python 2 [ужасы, фантастика, боевик, триллер, 2002] DVDRip, Dvo

salma3

15 | 3

1.45 ГБ

В этой теме нет новых непрочитанных сообщений. Противостояние / The One [фантастика, боевик, триллер, 2001] DVD5, Dub+Avo+Sub

salma3

16 | 5

4.36 ГБ

В этой теме нет новых непрочитанных сообщений. Годзилла против Мехагодзиллы 3 / Gojira X Mekagojira [фантастика, боевик, триллер, 2002] BDRip 1080p, Dvo

salma3

0 | 6

8.71 ГБ

В этой теме нет новых непрочитанных сообщений. Годзилла против Мехагодзиллы 3 / Gojira X Mekagojira [фантастика, боевик, триллер, 2002] BDRip 720p, Dvo

salma3

1 | 3

3.31 ГБ

В этой теме нет новых непрочитанных сообщений. Риддик / Riddick [Фантастика, боевик, триллер, 2013] DVD5, Dub

Dracon

18 | 4

4.37 ГБ

В этой теме нет новых непрочитанных сообщений. Годзилла / Godzilla [Фантастика, боевик, триллер, 2014] DVD5, Dub+Sub [Сжатый]

salma3

29 | 12

4.37 ГБ


Начать новую тему Ответить на тему  [ 1 сообщение ] 




Для Мосгорсуда, Роскомнадзора и рекламодателей:: mosgorsud-torrent[собачка]yandex.ru