Торрент файл
скачать торрент магнет ссылка Добавлен: 17 ноя 2014, 23:24
Размер: 11.57 ГБ
Сидеров: 5
Личеров: 4
Автор

СообщениеДобавлено: 17 ноя 2014, 23:24 

Не в сети
Супермодератор
Аватара пользователя
Дата регистрации:
15 фев 2012, 16:44
Возраст: 27
Спасибо: 5143 / 2090
Сообщения: 17478
Год выхода: 1987
Жанр: Исторический, приключения, военный
Режиссер: Филипп де Брока

В ролях: Филипп Нуаре, Софи Марсо, Стефан Фрейсс, Ламбер Уилсон, Жан-Пьер Кассель, Максим Леру, Венсан Шмитт, Рауль Бийре, Клодин Дельво, Жан Паредес, Роже Дюма, Изабель Желина

О фильме: Действие фильма происходит до и в первые годы Великой французской революции на западе Франции. Шуанами называли участников контрреволюционных отрядов, сторонников восстановления королевской власти. В центре действия любовный треугольник. За сердце красавицы Селины борются два друга детства: Таркен и Орель . Но революция развела их по разные стороны баррикад. В то время как один сражается в рядах шуанов, другой стал якобинским комиссаром...



Страна: Франция
Студия: Antenne-2, Canal+ [fr], Centre National de la Cinématographie (CNC)
Продолжительность: 4 х ~ 00:52:00
Перевод: Авторский (Дружинина)

Файл
Кодек: MPEG-2
Качество: DVD-9
Видео: MPEG2, PAL, 16:9 (720x480) VBR, 25 кадр/с
Звук: Русский / Французский DD 2.0 (192Kbps)

Title:
Size: 5.71 Gb ( 5 988 190 KBytes ) - DVD-9
Enabled regions: 1, 2, 3, 4, 5, 6, 7, 8

VTS_01 :
Play Length: 00:00:18+00:52:10+00:54:01
Video: PAL 16:9 (720x576) VBR, Auto Pan&Scan
Audio:
Russian (Dolby AC3, 2 ch)
Francais (Dolby AC3, 2 ch)

Menu Video:
PAL 16:9 (720x576) VBR
Auto Pan&Scan
Menu Subtitles:
Not specified
Menu English Language Unit :
Root Menu
Общее
Полное имя : D:ААА2Шуаны 2хDVD-9DISC_1VIDEO_TSVTS_01_1.VOB
Формат : MPEG-PS
Размер файла : 1024 Мбайт
Продолжительность : 18 м.
Режим общего битрейта : Переменный
Общий поток : 7678 Кбит/сек

Видео
Идентификатор : 224 (0xE0)
Формат : MPEG Video
Версия формата : Version 2
Профиль формата : Main@Main
Параметр BVOP формата : Да
Параметр матрицы формата : Выборочная
Параметр GOP формата : Variable
Продолжительность : 18 м.
Вид битрейта : Переменный
Битрейт : 7141 Кбит/сек
Максимальный битрейт : 8000 Кбит/сек
Ширина : 720 пикселей
Высота : 576 пикселей
Соотношение сторон : 16:9
Частота кадров : 25,000 кадров/сек
Стандарт вещания : PAL
Цветовое пространство : YUV
Субдискретизация насыщенности : 4:2:0
Битовая глубина : 8 бит
Тип развёртки : Чересстрочная
Порядок развёртки : Верхнее поле первое
Метод сжатия : С потерями
Бит/(Пиксели*Кадры) : 0.689
TimeCode_FirstFrame : 10:00:10:00
TimeCode_Source : Group of pictures header
Размер потока : 952 Мбайт (93%)

Аудио #1
Идентификатор : 189 (0xBD)-128 (0x80)
Формат : AC-3
Формат/Информация : Audio Coding 3
Расширение режима : CM (complete main)
Параметр Endianness формата : Big
Режим смешивания : DVD-Video
Продолжительность : 18 м.
Вид битрейта : Постоянный
Битрейт : 192 Кбит/сек
Каналы : 2 канала
Расположение каналов : Front: L R
Частота : 48,0 КГц
Битовая глубина : 16 бит
Метод сжатия : С потерями
Размер потока : 25,6 Мбайт (3%)

Аудио #2
Идентификатор : 189 (0xBD)-129 (0x81)
Формат : AC-3
Формат/Информация : Audio Coding 3
Расширение режима : CM (complete main)
Параметр Endianness формата : Big
Режим смешивания : DVD-Video
Продолжительность : 5 с. 408 мс.
Вид битрейта : Постоянный
Битрейт : 192 Кбит/сек
Каналы : 2 канала
Расположение каналов : Front: L R
Частота : 48,0 КГц
Битовая глубина : 16 бит
Метод сжатия : С потерями
Размер потока : 127 Кбайт (0%)

Меню


_________________



реклама партнёра


Вернуться к началу
 Профиль Отправить личное сообщение  
 
   Похожие торренты   Автор   Торрент   Размер 
В этой теме нет новых непрочитанных сообщений. Стальной рассвет / Steel Dawn [Фантастика, боевик, приключения, 1987] DVD9, Dvo

salma3

13 | 5

6.84 ГБ

В этой теме нет новых непрочитанных сообщений. Бешеный пёс / War Dog [боевик, триллер, драма, военный, 1987] DVDRip, Dvo

salma3

1 | 2

1.45 ГБ

В этой теме нет новых непрочитанных сообщений. Восточные кондоры / Dung fong tuk ying [Боевик, военный, 1987] BD-Rip 1080p, Avo

salma3

15 | 5

6.21 ГБ

В этой теме нет новых непрочитанных сообщений. Сучьи войны [01-08 из 08] [Военный, драма, исторический, 2014] SATRip

Dracon

2715 | 273

4.68 ГБ

В этой теме нет новых непрочитанных сообщений. Последний меч самурая / Mibu gishi den / When the last sword is drawn [Исторический, 2003] DVD9, Mvo+Avo

salma3

15 | 5

6.22 ГБ

В этой теме нет новых непрочитанных сообщений. Восточные кондоры / Dung fong tuk ying [Боевик, драма, военный, 1987] HDRip, Avo

salma3

10 | 0

1.46 ГБ

В этой теме нет новых непрочитанных сообщений. Батальонъ (Дмитрий Месхиев) [Драма, Военный, Исторический, 2015] DVD5 [iTunes]

Dracon

15 | 2

4.23 ГБ


Начать новую тему Ответить на тему  [ 1 сообщение ] 




Для Мосгорсуда, Роскомнадзора и рекламодателей:: mosgorsud-torrent[собачка]yandex.ru