Торрент файл
скачать торрент магнет ссылка Добавлен: 13 ноя 2014, 11:21
Размер: 4.33 ГБ
Сидеров: 18
Личеров: 3
Статус: (Dracon)
Автор

СообщениеДобавлено: 13 ноя 2014, 11:21 

Не в сети
Зам. Админа
Аватара пользователя
Дата регистрации:
02 дек 2010, 12:39
Спасибо: 12623 / 214
Сообщения: 28012
Год выхода: 2014
Жанр: Фантастика
Режиссер: Мэтт Ривз
В ролях: Энди Серкис, Джейсон Кларк, Гари Олдман, Кери Расселл, Тоби Кеббелл, Коди Смит-МакФи, Кирк Асеведо, Ник Тёрстон, Терри Нотари, Карин Коновал, Джуди Грир, Джон Эйз, Энрике Мурсиано

О фильме:
Численность генетически модифицированных обезьян, возглавляемых Цезарем, продолжает увеличиваться, но обезьянам угрожают люди, которым удалось выжить во время ужасной эпидемии десятилетней давности. Поначалу между соперниками устанавливается хрупкий мир, но он оказывается недолговечным. Обезьяны и люди находятся на грани войны, в ходе которой станет понятно, кто из них в будущем станет безраздельно править планетой.



Качество: DVD-5
Видео: MPEG2 Video, 720x576 ,(16:9), 25.00fps, 4 196 Kbps
Аудио 1: Русский - Dolby AC3, 6ch, 384kbps, 48000Hz  
Аудио 2: Английский - Dolby AC3, 6ch, 384kbps, 48000Hz
Субтитры: - русские, английские
Продолжительность: 02:05:06
Перевод: Дублированный  (Лицензия)

Format                         : MPEG-PS  
VTS_01_1.VOB
File size                      : 1 000 MiB
Duration                       : 27mn 36s
Overall bit rate mode          : Variable
Overall bit rate               : 5 065 Kbps

Video
ID                             : 224 (0xE0)
Format                         : MPEG Video
Format version                 : Version 2
Format profile                 : Main@Main
Format settings, BVOP          : Yes
Format settings, Matrix        : Custom
Duration                       : 27mn 36s
Bit rate mode                  : Variable
Bit rate                       : 4 196 Kbps
Maximum bit rate               : 9 000 Kbps
Width                          : 720 pixels
Height                         : 576 pixels
Display aspect ratio           : 16:9
Frame rate                     : 25.000 fps
Standard                       : PAL
Color space                    : YUV
Chroma subsampling             : 4:2:0
Bit depth                      : 8 bits
Scan type                      : Progressive
Compression mode               : Lossy
Bits/(Pixel*Frame)             : 0.405
Stream size                    : 829 MiB (83%)

Audio #1
ID                             : 189 (0xBD)-128 (0x80)
Format                         : AC-3
Format/Info                    : Audio Coding 3
Mode extension                 : CM (complete main)
Muxing mode                    : DVD-Video
Duration                       : 27mn 35s
Bit rate mode                  : Constant
Bit rate                       : 384 Kbps
Channel(s)                     : 6 channels
Channel positions              : Front: L C R, Side: L R, LFE
Sampling rate                  : 48.0 KHz
Bit depth                      : 16 bits
Compression mode               : Lossy
Stream size                    : 75.8 MiB (8%)

Audio #2
ID                             : 189 (0xBD)-129 (0x81)
Format                         : AC-3
Format/Info                    : Audio Coding 3
Mode extension                 : CM (complete main)
Muxing mode                    : DVD-Video
Duration                       : 27mn 35s
Bit rate mode                  : Constant
Bit rate                       : 384 Kbps
Channel(s)                     : 6 channels
Channel positions              : Front: L C R, Side: L R, LFE
Sampling rate                  : 48.0 KHz
Bit depth                      : 16 bits
Compression mode               : Lossy
Stream size                    : 75.8 MiB (8%)

Text #1
ID                             : 189 (0xBD)-33 (0x21)
Format                         : RLE
Format/Info                    : Run-length encoding
Muxing mode                    : DVD-Video

Text #2
ID                             : 189 (0xBD)-34 (0x22)
Format                         : RLE
Format/Info                    : Run-length encoding
Muxing mode                    : DVD-Video

Menu


















реклама партнёра


Вернуться к началу
 Профиль  
 
   Похожие торренты   Автор   Торрент   Размер 
В этой теме нет новых непрочитанных сообщений. Планета обезьян: Революция / Dawn of the Planet of the Apes [Фантастика, Боевик, Драма, 2014] BDRip, Avo [Живов]

salma3

2 | 2

2.05 ГБ

В этой теме нет новых непрочитанных сообщений. Планета обезьян: Война / War for the Planet of the Apes [фантастика, боевик, триллер, 2017] BDRip, Dub+Sub [Лицензия]

salma3

906 | 242

2.18 ГБ

В этой теме нет новых непрочитанных сообщений. Планета обезьян: Война / War for the Planet of the Apes [фантастика, боевик, триллер, 2017] BDRip, Dub+Sub [Лицензия]

salma3

2069 | 1009

1.46 ГБ

В этой теме нет новых непрочитанных сообщений. Планета обезьян: Война / War for the Planet of the Apes [фантастика, боевик, триллер, 2017] BDRip 720p, Dub+Sub [Лицензия]

salma3

0 | 0

6.22 ГБ

В этой теме нет новых непрочитанных сообщений. Планета обезьян: Война / War for the Planet of the Apes [Фантастика, боевик, приключения, 2017] BDRemux 1080p, Dub [Лицензия]

salma3

58 | 75

31.78 ГБ

В этой теме нет новых непрочитанных сообщений. Планета обезьян: Война / War for the Planet of the Apes [фантастика, боевик, триллер, 2017] BDRip 1080p, Dub+Sub [Лицензия]

salma3

320 | 21

12.58 ГБ

В этой теме нет новых непрочитанных сообщений. Планета обезьян: Война / War for the Planet of the Apes [фантастика, боевик, триллер, 2017] BDRemux 1080p, Dub+Sub [Лицензия]

salma3

174 | 47

28.3 ГБ


Начать новую тему Ответить на тему  [ 1 сообщение ] 




Для Мосгорсуда, Роскомнадзора и рекламодателей:: mosgorsud-torrent[собачка]yandex.ru