Торрент файл
скачать торрент магнет ссылка Добавлен: 12 ноя 2014, 11:11
Размер: 4.11 ГБ
Сидеров: 90
Личеров: 7
Автор

СообщениеДобавлено: 12 ноя 2014, 11:11 

Не в сети
Зам. Админа
Аватара пользователя
Дата регистрации:
02 дек 2010, 12:39
Спасибо: 12460 / 214
Сообщения: 27968
Год выхода: 2014
Жанр: фантастика, триллер, драма
Режиссер: Вик Армстронг
В ролях: Николас Кейдж, Чад Майкл Мюррэй, Касси Томсон, Никки Уилан, Джордин Спаркс, Лиа Томпсон, Куинтон Аарон, Мартин Клебба, Лаура Кайот, Стефани Онор

О фильме: История летчика Рэйфорда Стила, столкнувшегося во время рейса с исчезновением нескольких пассажиров прямо из салона самолета. Вскоре становится известно о случаях бесследного исчезновения и в других местах. Людей охватывает паника.


Выпущено: США / eOne Entertainment, Stoney Lake Entertainment
Продолжительность: 01:45:35
Озвучивание: Дублированное [лицензия]

Формат: VOB
Качество: DVD5
Видео: PAL 16:9 (720x576x1024x576) VBR Auto Letterboxed ~ 5554.06 kbps avg
Аудио: Russian (Dolby AC3, 6 ch, 448 kbps)
Размер: 4.11 GB
Скачать: Сэмпл


Title: Left.Behind.2014.DVD5.NiP
Size: 4.11 Gb ( 4 311 190,00 KBytes ) - DVD-5
Enabled regions: 1, 2, 3, 4, 5, 6, 7, 8

VTS_01 :
Play Length: 01:45:35
Video: PAL 16:9 (720x576) VBR, Auto Letterboxed
Audio:
English (Dolby AC3, 6 ch)

VTS_02 :
Play Length: 00:00:08
Video: PAL 4:3 (720x576) VBR

VTS_03 :
Play Length: 00:00:04+00:00:04
Video: PAL 16:9 (720x576) VBR, Auto Letterboxed

VTS_04 :
Play Length: 00:00:12
Video: PAL 16:9 (720x576) VBR, Auto Letterboxed
Subtitles:
English

VTS_05 :
Play Length: 00:00:10
Video: PAL 4:3 (720x576) VBR
Audio:
English (Dolby AC3, 2 ch)

Общее
Полное имя : I:Left.Behind.2014.DVD5.NiPVIDEO_TSVTS_01_3.VOB
Формат : MPEG-PS
Размер файла : 1024 Мбайт
Продолжительность : 27 м.
Режим общего битрейта : Переменный
Общий поток : 5187 Кбит/сек

Видео
Идентификатор : 224 (0xE0)
Формат : MPEG Video
Версия формата : Version 2
Профиль формата : Main@Main
Параметр BVOP формата : Да
Параметр матрицы формата : Выборочная
Параметр GOP формата : M=3, N=15
Продолжительность : 27 м.
Вид битрейта : Переменный
Битрейт : 4635 Кбит/сек
Максимальный битрейт : 8000 Кбит/сек
Ширина : 720 пикселей
Высота : 576 пикселей
Соотношение сторон : 16:9
Частота кадров : 25,000 кадров/сек
Стандарт вещания : PAL
Цветовое пространство : YUV
Субдискретизация насыщенности : 4:2:0
Битовая глубина : 8 бит
Тип развёртки : Чересстрочная
Порядок развёртки : Верхнее поле первое
Метод сжатия : С потерями
Бит/(Пиксели*Кадры) : 0.447
Временной код первого кадра : 00:45:15:19
Оригинал временного кода : Group of pictures header
Размер потока : 915 Мбайт (89%)

Аудио
Идентификатор : 189 (0xBD)-128 (0x80)
Формат : AC-3
Формат/Информация : Audio Coding 3
Расширение режима : CM (complete main)
Параметр Endianness формата : Big
Режим смешивания : DVD-Video
Продолжительность : 27 м.
Вид битрейта : Постоянный
Битрейт : 448 Кбит/сек
Каналы : 6 каналов
Расположение каналов : Front: L C R, Side: L R, LFE
Частота : 48,0 КГц
Битовая глубина : 16 бит
Метод сжатия : С потерями
Задержка видео : -864 мс.
Размер потока : 88,5 Мбайт (9%)

Меню








реклама партнёра


Вернуться к началу
 Профиль  
 
   Похожие торренты   Автор   Торрент   Размер 
В этой теме нет новых непрочитанных сообщений. Оставленные / Left Behind [фантастика, триллер, драма, 2014] Blu-Ray, Dub [Лицензия]

Dracon

135 | 30

19.23 ГБ

В этой теме нет новых непрочитанных сообщений. Оставленные / Left Behind [Фантастика, триллер, драма, 2014] BDRip-AVC, Dub [Лицензия]

salma3

539 | 24

1.46 ГБ

В этой теме нет новых непрочитанных сообщений. Оставленные / Left Behind [фантастика, триллер, драма, 2014] HDRip, Dub [Лицензия]

Dracon

42 | 3

1.46 ГБ

В этой теме нет новых непрочитанных сообщений. Оставленные / Left Behind [фантастика, триллер, драма, 2014] BDRip 1080p, Dub [Лицензия]

Dracon

659 | 29

7.48 ГБ

В этой теме нет новых непрочитанных сообщений. Оставленные / Left Behind [фантастика, триллер, драма, 2014] HDRip, Dub [лицензия] [iPad]

salma3

76 | 8

1.42 ГБ

В этой теме нет новых непрочитанных сообщений. Оставленные  / Left Behind [фантастика, триллер, драма, 2014] HDTVRip, dub [чистый звук]

Dracon

382 | 3

1.46 ГБ

В этой теме нет новых непрочитанных сообщений. Оставленные / Остатки / The Leftovers (Сезон 1, Серия 1-6 из 10) [2014, Фантастика, триллер, драма,детектив, HDTVRip-AVC 1080p] [MVO] [NewStudio]

Враг Нароода

0 | 2

20.93 ГБ


Начать новую тему Ответить на тему  [ 1 сообщение ] 




Для Мосгорсуда, Роскомнадзора и рекламодателей:: mosgorsud-torrent[собачка]yandex.ru