Торрент файл
скачать торрент магнет ссылка Добавлен: 12 ноя 2014, 10:43
Размер: 6.46 ГБ
Сидеров: 13
Личеров: 5
Статус: (salma3)
Автор

СообщениеДобавлено: 12 ноя 2014, 10:43 

Не в сети
Супермодератор
Аватара пользователя
Дата регистрации:
15 фев 2012, 16:44
Возраст: 27
Спасибо: 5135 / 2089
Сообщения: 17406
Год выхода: 2004
Жанр: боевик, приключения, семейный
Режиссер: Кевин Аллен

В ролях: Фрэнки Муниз, Энтони Андерсон, Ханна Спирритт, Синтия Стивенсон, Дэниэл Робак, Анна Чэнселлор, Кит Аллен, Джеймс Фолкнер, Дэвид Келли, Сантьяго Сегура

О фильме:
Обычный сиэттловский тинейджер Коди Бэнкс, по совместительству младший секретный агент ЦРУ, снова должен спасать родину. На этот раз он отправляется в Лондон. По легенде он — студент, приехавший учиться по обмену.
Однако его главная задача — найти украденное секретное устройство, позволяющее управлять сознанием других людей. Но в ходе операции Бэнкс понимает, что его «операция» — это прикрытие большой аферы, в которую замешано его начальство…



Страна: США
Студия: Metro-Goldwyn-Mayer (MGM)
Продолжительность: 01:35:57
Перевод: Дублированный (Невафильм), профессиональный многоголосый, авторский одноголосый (Е. Рудой)
Оригинальная аудио-дорожка: Английская

Файл
Кодек: MPEG2
Качество: DVD-9
Видео: MPEG2, PAL, 720x576 (16:9), ~ 6325 Кбит/с, VBR, 25 кадр/с
Аудио #1: Английский, Dolby AC3, 48000 Гц, 448 Кбит/с, 6 каналов (5.1) - Оригинал
Аудио #2: Русский, Dolby AC3, 48000 Гц, 448 Кбит/с, 6 каналов (5.1) - DUB [Невафильм]
Аудио #3: Русский, Dolby AC3, 48000 Гц, 448 Кбит/с, 6 каналов (5.1) - MVO
Аудио #4: Русский, Dolby AC3, 48000 Гц, 448 Кбит/с, 6 каналов (5.1) - AVO [Е. Рудой]
Субтитры: English, Nederlands, Svenska, Suomi, Norsk, Dansk, Portugues, Greek, Magyar, Slovenian, Hrvatski, Bulgarian
Меню: Английское, анимированное, озвученное

Огромная благодарность:

За голос Евгения Рудого спасибо товарищу Savely_75
За чистый многоголосый перевод спасибо порталу ГЛАНЦ.РУ
За дубляж спасибо товарищу SLenik

Реавторинг: __СЕРЁГА__

Релиз от: R.G. Torrents.ru
Title: Agent.Cody.Banks.2.Destination.London.2004.DVD9
Size: 6.46 Gb ( 6 770 328,00 KBytes ) - DVD-9
Enabled regions: 1, 2, 3, 4, 5, 6, 7, 8

VTS_01 :
Play Length: 00:00:00+00:00:00+01:35:57
Video: PAL 16:9 (720x576) VBR, Auto Letterboxed
Audio:
English (Dolby AC3, 6 ch)
Russian (Dolby AC3, 6 ch)
Russian (Dolby AC3, 6 ch)
Russian (Dolby AC3, 6 ch)
Subtitles:
English
Nederlands
Svenska
Suomi
Norsk
Dansk
Portugues
Greek
Magyar
Slovenian
Hrvatski
Bulgarian

VTS_02 :
Play Length: 00:08:18+00:04:00
Video: PAL 4:3 (720x576) VBR
Audio:
English (Dolby AC3, 2 ch)
Subtitles:
English
Nederlands
Svenska
Suomi
Norsk
Dansk

VTS_03 :
Play Length: 00:01:14+00:00:35+00:01:08+{00:02:58}+00:00:53+00:01:32+00:01:09+{00:03:35}
Video: PAL 4:3 (720x576) VBR
Audio:
English (Dolby AC3, 2 ch)
Subtitles:
English
Nederlands
Svenska
Suomi
Norsk
Dansk

VTS_04 :
Play Length: 00:01:51
Video: PAL 16:9 (720x576) VBR, Auto Letterboxed
Audio:
Not specified (Dolby AC3, 2 ch)
Subtitles:
Not specified
Not specified
Not specified
Not specified
Not specified
Not specified

VTS_05 :
Play Length: 00:01:36
Video: PAL 4:3 (720x576) VBR
Audio:
English (Dolby AC3, 2 ch)
Subtitles:
Not specified
Not specified
Not specified
Not specified
Not specified
Not specified
General
Complete name : VTS_01_1.VOB
Format : MPEG-PS
File size : 1 024 MiB
Duration : 17mn 17s
Overall bit rate : 8 282 Kbps

Video
ID : 224 (0xE0)
Format : MPEG Video
Format version : Version 2
Format profile : Main@Main
Format settings, BVOP : Yes
Format settings, Matrix : Custom
Duration : 17mn 17s
Bit rate mode : Variable
Bit rate : 6 325 Kbps
Width : 720 pixels
Height : 576 pixels
Display aspect ratio : 16:9
Frame rate : 25.000 fps
Standard : PAL
Color space : YUV
Chroma subsampling : 4:2:0
Bit depth : 8 bits
Compression mode : Lossy
Bits/(Pixel*Frame) : 0.610
Stream size : 782 MiB (76%)

Audio #1
ID : 189 (0xBD)-128 (0x80)
Format : AC-3
Format/Info : Audio Coding 3
Mode extension : CM (complete main)
Muxing mode : DVD-Video
Duration : 17mn 16s
Bit rate mode : Constant
Bit rate : 448 Kbps
Channel(s) : 6 channels
Channel positions : Front: L C R, Side: L R, LFE
Sampling rate : 48.0 KHz
Bit depth : 16 bits
Compression mode : Lossy
Stream size : 55.4 MiB (5%)

Audio #2
ID : 189 (0xBD)-129 (0x81)
Format : AC-3
Format/Info : Audio Coding 3
Mode extension : CM (complete main)
Muxing mode : DVD-Video
Duration : 17mn 16s
Bit rate mode : Constant
Bit rate : 448 Kbps
Channel(s) : 6 channels
Channel positions : Front: L C R, Side: L R, LFE
Sampling rate : 48.0 KHz
Bit depth : 16 bits
Compression mode : Lossy
Delay relative to video : -56ms
Stream size : 55.4 MiB (5%)

Audio #3
ID : 189 (0xBD)-130 (0x82)
Format : AC-3
Format/Info : Audio Coding 3
Mode extension : CM (complete main)
Muxing mode : DVD-Video
Duration : 17mn 16s
Bit rate mode : Constant
Bit rate : 448 Kbps
Channel(s) : 6 channels
Channel positions : Front: L C R, Side: L R, LFE
Sampling rate : 48.0 KHz
Bit depth : 16 bits
Compression mode : Lossy
Delay relative to video : -56ms
Stream size : 55.4 MiB (5%)

Audio #4
ID : 189 (0xBD)-131 (0x83)
Format : AC-3
Format/Info : Audio Coding 3
Mode extension : CM (complete main)
Muxing mode : DVD-Video
Duration : 17mn 16s
Bit rate mode : Constant
Bit rate : 448 Kbps
Channel(s) : 6 channels
Channel positions : Front: L C R, Side: L R, LFE
Sampling rate : 48.0 KHz
Bit depth : 16 bits
Compression mode : Lossy
Delay relative to video : -56ms
Stream size : 55.4 MiB (5%)

Text #1
ID : 189 (0xBD)-32 (0x20)
Format : RLE
Format/Info : Run-length encoding
Muxing mode : DVD-Video
Duration : 17mn 16s

Text #2
ID : 189 (0xBD)-33 (0x21)
Format : RLE
Format/Info : Run-length encoding
Muxing mode : DVD-Video
Duration : 17mn 16s

Text #3
ID : 189 (0xBD)-34 (0x22)
Format : RLE
Format/Info : Run-length encoding
Muxing mode : DVD-Video
Duration : 17mn 16s

Text #4
ID : 189 (0xBD)-35 (0x23)
Format : RLE
Format/Info : Run-length encoding
Muxing mode : DVD-Video
Duration : 17mn 16s

Text #5
ID : 189 (0xBD)-36 (0x24)
Format : RLE
Format/Info : Run-length encoding
Muxing mode : DVD-Video
Duration : 17mn 16s

Text #6
ID : 189 (0xBD)-37 (0x25)
Format : RLE
Format/Info : Run-length encoding
Muxing mode : DVD-Video
Duration : 17mn 16s

Text #7
ID : 189 (0xBD)-38 (0x26)
Format : RLE
Format/Info : Run-length encoding
Muxing mode : DVD-Video
Duration : 17mn 16s

Text #8
ID : 189 (0xBD)-39 (0x27)
Format : RLE
Format/Info : Run-length encoding
Muxing mode : DVD-Video
Duration : 17mn 16s

Text #9
ID : 189 (0xBD)-40 (0x28)
Format : RLE
Format/Info : Run-length encoding
Muxing mode : DVD-Video
Duration : 17mn 16s

Text #10
ID : 189 (0xBD)-41 (0x29)
Format : RLE
Format/Info : Run-length encoding
Muxing mode : DVD-Video
Duration : 17mn 16s

Text #11
ID : 189 (0xBD)-42 (0x2A)
Format : RLE
Format/Info : Run-length encoding
Muxing mode : DVD-Video
Duration : 17mn 16s

Text #12
ID : 189 (0xBD)-43 (0x2B)
Format : RLE
Format/Info : Run-length encoding
Muxing mode : DVD-Video
Duration : 17mn 16s

Menu
"Agent Mode" Interactive Quiz
"Spy on the Set" Visual cast Commentary
"Back in Action" Featurette
Deleted Scenes
Photo Gallery
Original Theatrical Trailer



Релиз от:


_________________



реклама партнёра


Вернуться к началу
 Профиль Отправить личное сообщение  
 
   Похожие торренты   Автор   Торрент   Размер 
В этой теме нет новых непрочитанных сообщений. Агент Коди Бэнкс / Agent Cody Banks [Комедия, боевик, приключения, фантастика, 2003] DVD9, Dub+Dvo+Sub

salma3

5 | 6

7.86 ГБ

В этой теме нет новых непрочитанных сообщений. Агент Коди Бэнкс / Agent Cody Banks [Комедия, боевик, приключения, 2003] BDRemux 1080p, Dub

salma3

27 | 26

18.49 ГБ

В этой теме нет новых непрочитанных сообщений. Агент Коди Бэнкс / Agent Cody Banks [Комедия, боевик, приключения, 2003] BDRip 720p, Dub

salma3

37 | 30

4.84 ГБ

В этой теме нет новых непрочитанных сообщений. Пункт назначения: Коллекция / Final Destination: The Collection [Ужасы, фантастика, триллер, детектив, 2000-2011] BDRip

vitalikmd

42 | 10

10.6 ГБ

В этой теме нет новых непрочитанных сообщений. Агент Картер / Agent Carter [02х01-05 из 10] [Боевик, приключения, фэнтези, 2016] WEB-DL 1080p [Lostfilm]

Dracon

20 | 36

8.71 ГБ

В этой теме нет новых непрочитанных сообщений. Агент Картер / Agent Carter [2 сезон: 1-5 серии из 10] [Боевик, приключения, фэнтези, 2016] WEB-DLRip [Lostfilm]

Dracon

45 | 60

2.44 ГБ

В этой теме нет новых непрочитанных сообщений. Агент Картер / Agent Carter [01x01-08 из 08] (Дэнни Кэннон) [Боевик, приключения, фэнтези, 2014-2015] WEB-DLRip, Mvo+Sub [LostFilm]

Dracon

130 | 49

2.31 ГБ


Начать новую тему Ответить на тему  [ 1 сообщение ] 




Для Мосгорсуда, Роскомнадзора и рекламодателей:: mosgorsud-torrent[собачка]yandex.ru